[ Сегодня идет свободное скачивание без начисления Download ]


Статистика раздачи
Нет
 
   
 
Top  
 
 
Гонщик / Driven
«Что тебя заводит?»
- Информация о фильме
Название: Гонщик
Оригинальное название: Driven
Год выхода: 2001
Жанр: Драма, спорт, боевик
-
Режиссер: Ренни Харлин
В ролях: Сильвестр Сталлоне, Берт Рейнолдс, Кип Парду, Стэйси Эдвардс, Тиль Швайгер, Джина Гершон, Эстелла Уоррен, Кристиан де ла Фуэнте, Брент Бриско, Роберт Шон Леонард, Верона Пут, Ясмин Вагнер, Джон Делла Пенна, Дэн Дюран, Роберт Честер Смит, Ричард Зэппери, Тино Монте, Брайан Хейтон, Ренни Харлин, Луукас Харлин, Питер Косака, Фрэнк Бленч, Барри Стиллвелл, Бретт Хёрд, Филлип МакКензи, Лиз Уэст, Майкл Бойсверт, Джеффри Найт, Вейн Бест, Джейн Моффат, Джэйк Саймонс, Жан Алези, Майкл Андретти, Кенни Брак, Патрик Карпентье, Кристьяно Да Матта, Адриан Фернандез, Кристиан Фиттипальди, Дарио Франчитти, Луис Гарсиа мл., Маурицио Гугельмин, Мишель Журден мл., Тони Канаан, Хуан Пабло Монтойя, Роберто Морено, Макс Папис, Ориол Сервия, Алекс Тальяни, Пол Трэйси, Джимми Вассер
О фильме:
Чрезвычайно талантливый, но еще очень молодой гонщик Джимми Блай внезапно начинает терять «хватку». Блай — восходящая звезда, и босс его команды отчетливо понимает, что срочно необходим «матерый» специалист-наставник, который не даст карьере Джимми сойти «на нет». Этим специалистом становится Джо Тэнто — опытнейший гонщик и экс-чемпион. Некоторое время назад Тэнто вынужден был покинуть мир гонок из-за несчастного случая. Но теперь у Джо есть уникальный шанс не только сделать юного Блая новым королем гонщиков, но и доказать всем, на что еще способен он сам.
-


-
Страна: США, Канада, Австралия
Студия: Franchise Pictures, Epsilon Motion Pictures, Trackform Film Productions, Champs Productions
Продолжительность: 01:56:49
Перевод: Дублированный
Субтитры: нет
-
Файл
Качество: BDRip
Формат: AVI / XviD
Видео: 720x304 (2.37:1), 23.976 fps, XviD build 73 ~1329 kbps avg, 0.25 bit/pixel
Аудио: 48 kHz, AC3 Dolby Digital, 3/2 (L,C,R,l,r) + LFE ch, ~448.00 kbps avg-

MediaInfo

General
Complete name                            : D:\Gonzhik_2001_BDRip_by_Dalemake.avi
Format                                   : AVI
Format/Info                              : Audio Video Interleave
File size                                : 1.46 GiB
Duration                                 : 1h 56mn
Overall bit rate                         : 1 787 Kbps
Writing application                      : VirtualDubMod 1.5.10.3 | www.virtualdub-fr.org || (build 2550/release)
Writing library                          : VirtualDubMod build 2550/release
Video
ID                                       : 0
Format                                   : MPEG-4 Visual
Format profile                           : Advanced Simple@L5
Format settings, BVOP                    : 1
Format settings, QPel                    : No
Format settings, GMC                     : No warppoints
Format settings, Matrix                  : Custom
Codec ID                                 : XVID
Codec ID/Hint                            : XviD
Duration                                 : 1h 56mn
Bit rate                                 : 1 330 Kbps
Width                                    : 720 pixels
Height                                   : 304 pixels
Display aspect ratio                     : 2.35:1
Frame rate                               : 23.976 fps
Color space                              : YUV
Chroma subsampling                       : 4:2:0
Bit depth                                : 8 bits
Scan type                                : Progressive
Compression mode                         : Lossy
Bits/(Pixel*Frame)                       : 0.253
Stream size                              : 1.09 GiB (74%)
Writing library                          : XviD 73
Audio
ID                                       : 1
Format                                   : AC-3
Format/Info                              : Audio Coding 3
Mode extension                           : CM (complete main)
Format settings, Endianness              : Big
Codec ID                                 : 2000
Duration                                 : 1h 56mn
Bit rate mode                            : Constant
Bit rate                                 : 448 Kbps
Channel(s)                               : 6 channels
Channel positions                        : Front: L C R, Side: L R, LFE
Sampling rate                            : 48.0 KHz
Bit depth                                : 16 bits
Compression mode                         : Lossy
Stream size                              : 374 MiB (25%)
Alignment                                : Split accross interleaves
Interleave, duration                     : 42 ms (1.00 video frame)
Interleave, preload duration             : 500 ms
-

[Цитировать]



Показать сообщения:    

Текущее время: 24-Май 17:42

Часовой пояс: UTC + 6


Вы не можете начинать темы
Вы не можете отвечать на сообщения
Вы не можете редактировать свои сообщения
Вы не можете удалять свои сообщения
Вы не можете голосовать в опросах
Вы не можете прикреплять файлы к сообщениям
Вы не можете скачивать файлы

!ВНИМАНИЕ!
Сайт не предоставляет электронные версии произведений, а занимается лишь коллекционированием и каталогизацией ссылок, присылаемых и публикуемых на форуме нашими читателями. Если вы являетесь правообладателем какого-либо представленного материала и не желаете, чтобы ссылка на него находилась в нашем каталоге, свяжитесь с нами, и мы незамедлительно удалим ее. Файлы для обмена на трекере предоставлены пользователями сайта, и администрация не несет ответственности за их содержание. Просьба не заливать файлы, защищенные авторскими правами, а также файлы нелегального содержания!