[ Сегодня идет свободное скачивание без начисления Download ]


Статистика раздачи
Нет
 
   
 
Top  
 
 
-Смертный приговор / Death Sentence (2007) BDRip-«Защитите то, что является Вашим»- Год выпуска: 2007
Жанр: боевик, триллер, драма, криминал
Описание фильма:
Ник — менеджер крупной компании, обходительный и вежливый человек с репутацией отличного семьянина. Его жизнь была прекрасна, до тех пор, пока однажды он не стал свидетелем того, что полностью и бесповоротно сделало его иным. Поселившаяся в нём с той ужасной ночи ярость приводит его к твердой уверенности, что для защиты своей семьи он не остановится ни перед чем…
Режиссер: Джеймс Ван
Актеры: Кевин Бейкон, Гаррет Хедлунд, Келли Престон, Джордан Гаррет, Стюарт Лэфферти, Аиша Тайлер, Джон Гудман, Мэтью О’Лири, Эди Гатеги, Гектор Руис
Продолжительность: 01:45:30
Качество видео: BDRip
Перевод: Профессиональный (двухголосый закадровый) (П.Гланц и И.Королёва) + Авторский (одноголосый, закадровый) Ю.Немахов Дата мировой премьеры: 20 мая 2007
Видеокодек: Xvid
Битрейт видео: ~1574 kbps
Размер кадра: 720x304
Audio #1: 48 kHz, AC3 Dolby Digital, 2/0 (L,R) ch, ~192 kbps - Профессиональный (двухголосый закадровый) П.Гланц и И.Королёва
Audio #2: 48 kHz, AC3 Dolby Digital, 2/0 (L,R) ch, ~192 kbps - Авторский (одноголосый закадровый) Ю.Немахов

MI

Общее
Полное имя : D:\Рипы\Death.Sentence.2007.BDRip.avi
Формат : AVI
Формат/Информация : Audio Video Interleave
Размер файла : 1,45 Гбайт
Продолжительность : 1 ч. 45 м.
Общий поток : 1972 Кбит/сек
Название фильма : Death.Sentence.2007.BDRip
Режиссёр : rip by maygli
Программа кодирования : VirtualDubModRus 1.5.10.2 (build 2542/release)
Правообладатель : ... (RG Rulya74)
Видео
Идентификатор : 0
Формат : MPEG-4 Visual
Профиль формата : Advanced Simple@L5
Параметр BVOP формата : 1
Параметр QPel формата : Нет
Параметр GMC формата : Без точки перехода
Параметр матрицы формата : Выборочная
Идентификатор кодека : XVID
Идентификатор кодека/Подсказка : XviD
Продолжительность : 1 ч. 45 м.
Битрейт : 1574 Кбит/сек
Ширина : 720 пикселей
Высота : 304 пикселя
Соотношение сторон : 2,35:1
Частота кадров : 23,976 кадра/сек
Цветовое пространство : YUV
Субдискретизация насыщенности : 4:2:0
Битовая глубина : 8 бит
Тип развёртки : Прогрессивная
Метод сжатия : С потерями
Бит/(Пиксели*Кадры) : 0.300
Размер потока : 1,16 Гбайт (80%)
Библиотека кодирования : XviD 65
Аудио #1
Идентификатор : 1
Формат : AC-3
Формат/Информация : Audio Coding 3
Расширение режима : CM (complete main)
Параметр Endianness формата : Big
Идентификатор кодека : 2000
Продолжительность : 1 ч. 45 м.
Вид битрейта : Постоянный
Битрейт : 192 Кбит/сек
Каналы : 2 канала
Расположение каналов : Front: L R
Частота : 48,0 КГц
Битовая глубина : 16 бит
Метод сжатия : С потерями
Размер потока : 145 Мбайт (10%)
Выравнивание : Разделение по промежуткам
Продолжительность промежутка : 42 мс. (1,00 видеокадр)
Время предзагрузки промежутка : 500 мс.
Заголовок : Профессиональный (двухголосый закадровый) П.Гланц и И.Королёва
Аудио #2
Идентификатор : 2
Формат : AC-3
Формат/Информация : Audio Coding 3
Расширение режима : CM (complete main)
Параметр Endianness формата : Big
Идентификатор кодека : 2000
Продолжительность : 1 ч. 45 м.
Вид битрейта : Постоянный
Битрейт : 192 Кбит/сек
Каналы : 2 канала
Расположение каналов : Front: L R
Частота : 48,0 КГц
Битовая глубина : 16 бит
Метод сжатия : С потерями
Размер потока : 145 Мбайт (10%)
Выравнивание : Разделение по промежуткам
Продолжительность промежутка : 42 мс. (1,00 видеокадр)
Время предзагрузки промежутка : 500 мс.
Заголовок : Авторский (одноголосый закадровый) Ю.Немахов
Скриншоты:
[th]http://img.torrentsclub.org/di/TX6D/5aab03d0b2347ae...55bc80b.png[/th] [th]http://img.torrentsclub.org/di/YN3A/70faa7590320b40...4c3fcf7.png[/th] [th]http://img.torrentsclub.org/di/EUGC/315a48546cc35da...7c25cda.png[/th]
Время раздачи: с 10:00 до 22:30

[Цитировать]



Показать сообщения:    

Текущее время: 10-Дек 08:02

Часовой пояс: UTC + 3


Вы не можете начинать темы
Вы не можете отвечать на сообщения
Вы не можете редактировать свои сообщения
Вы не можете удалять свои сообщения
Вы не можете голосовать в опросах
Вы не можете прикреплять файлы к сообщениям
Вы не можете скачивать файлы

!ВНИМАНИЕ!
Сайт не предоставляет электронные версии произведений, а занимается лишь коллекционированием и каталогизацией ссылок, присылаемых и публикуемых на форуме нашими читателями. Если вы являетесь правообладателем какого-либо представленного материала и не желаете, чтобы ссылка на него находилась в нашем каталоге, свяжитесь с нами, и мы незамедлительно удалим ее. Файлы для обмена на трекере предоставлены пользователями сайта, и администрация не несет ответственности за их содержание. Просьба не заливать файлы, защищенные авторскими правами, а также файлы нелегального содержания!