[ Сегодня идет свободное скачивание без начисления Download ]


Статистика раздачи
Нет
 
   
 
Top  
 
 
-Пиковая дама / Dame de pique (2011) HDTVRip- Год выпуска: 2011
Жанр: [sh]Триллер, Детектив, Криминал[/sh]
Описание фильма:
Убит мужчина. Рядом с ним найден отпечаток ноги 38 размера. В процессе расследования выясняется, что убитый мужчина - нанятый детектив. Жанетта, помощница комиссара Мартена и Баран, начальница службы криминалистического учёта делают первые констатации убийства.
Режиссер: Филипп Вено
Актеры: Тьерри Годар, Чарли Фуке, Жан-Бернар Туссен, Софи-Шарлотт Юссон, Валери Декоберт-Корецки, Николя Бокер, Мюриель Комбо, Фредерик Горни, Клара Понсо, Вероника Розати
Продолжительность: 01:36:13
Качество видео: HDTVRip
Перевод: Профессиональный (двухголосый закадровый)

Дата мировой премьеры: 15 января 2011
Видеокодек: Xvid
Битрейт видео: ~1905 kbps
Размер кадра: 720x400
Аудиокодек: MP2
Битрейт аудио: 256.00 kbps

MI

Общее
Полное имя : D:\Рипы\Dame.de.pique.2011.HDTVRip.avi
Формат : AVI
Формат/Информация : Audio Video Interleave
Размер файла : 1,46 Гбайт
Продолжительность : 1 ч. 36 м.
Общий поток : 2170 Кбит/сек
Название фильма : Dame.de.pique.2011.HDTVRip
Режиссёр : rip by maygli
Программа кодирования : VirtualDubModRus 1.5.10.2 (build 2542/release)
Видео
Идентификатор : 0
Формат : MPEG-4 Visual
Профиль формата : Advanced [email protected]
Параметр BVOP формата : 1
Параметр QPel формата : Нет
Параметр GMC формата : Без точки перехода
Параметр матрицы формата : Выборочная
Идентификатор кодека : XVID
Идентификатор кодека/Подсказка : XviD
Продолжительность : 1 ч. 36 м.
Битрейт : 1905 Кбит/сек
Ширина : 720 пикселей
Высота : 400 пикселей
Соотношение сторон : 16:9
Частота кадров : 25,000 кадров/сек
Цветовое пространство : YUV
Субдискретизация насыщенности : 4:2:0
Битовая глубина : 8 бит
Тип развёртки : Прогрессивная
Метод сжатия : С потерями
Бит/(Пиксели*Кадры) : 0.265
Размер потока : 1,28 Гбайт (88%)
Библиотека кодирования : XviD 65
Аудио
Идентификатор : 1
Формат : MPEG Audio
Версия формата : Version 1
Профиль формата : Layer 2
Идентификатор кодека : 50
Продолжительность : 1 ч. 36 м.
Вид битрейта : Постоянный
Битрейт : 256 Кбит/сек
Каналы : 2 канала
Частота : 48,0 КГц
Метод сжатия : С потерями
Размер потока : 176 Мбайт (12%)
Выравнивание : Соединение по промежуткам
Продолжительность промежутка : 40 мс. (1,00 видеокадр)
Время предзагрузки промежутка : 504 мс.
Заголовок : Профессиональный (двухголосый закадровый)
Скриншоты:
[th]http://img.torrentsclub.org/di/0F1T/7c34b52f8d84fcf...1f328cc.png[/th] [th]http://img.torrentsclub.org/di/7ULW/786eba84a8ad76f...19a3a86.png[/th] [th]http://img.torrentsclub.org/di/XFXK/a5b1776632d1c7d...72e0ddd.png[/th]
Время раздачи: с 23:00 до 6:10

[Цитировать]



Показать сообщения:    

Текущее время: 04-Дек 09:04

Часовой пояс: UTC + 3


Вы не можете начинать темы
Вы не можете отвечать на сообщения
Вы не можете редактировать свои сообщения
Вы не можете удалять свои сообщения
Вы не можете голосовать в опросах
Вы не можете прикреплять файлы к сообщениям
Вы не можете скачивать файлы

!ВНИМАНИЕ!
Сайт не предоставляет электронные версии произведений, а занимается лишь коллекционированием и каталогизацией ссылок, присылаемых и публикуемых на форуме нашими читателями. Если вы являетесь правообладателем какого-либо представленного материала и не желаете, чтобы ссылка на него находилась в нашем каталоге, свяжитесь с нами, и мы незамедлительно удалим ее. Файлы для обмена на трекере предоставлены пользователями сайта, и администрация не несет ответственности за их содержание. Просьба не заливать файлы, защищенные авторскими правами, а также файлы нелегального содержания!