[ Сегодня идет свободное скачивание без начисления Download ]


Статистика раздачи
Нет
 
   
 
Top  
 
 
- 2 / Kick-Ass 2 (2013) BDRip [1080p]- Год выпуска: 2013
Производство: США, Великобритания, Universal Pictures, Marv Films, Plan B Entertainment
Жанр: [sh]Боевик, Комедия, Криминал[/sh]
Перевод: Дублированный [лицензия / BD CEE]
Субтитры: Вшитые отключаемые
Язык субтитров: Русский, английский
Дата мировой премьеры: 14 августа 2013
Дата российской премьеры: 5 сентября 2013, «UPI»
Дата выхода DVD релиза: 19 декабря 2013, «Двадцатый Век Фокс СНГ»
Режиссер: Джефф Уодлоу
Продюсер: Адам Болинг, Тарквин Пэк, Брэд Питт
Актеры: Аарон Тейлор-Джонсон, Хлоя Грейс Морец, Кристофер Минц-Плассе, Джим Керри, Ольга Куркулина, Моррис Честнат, Клаудия Ли, Эми Анзеловиц, Кларк Дьюк, Август Прю
Описание фильма:
В реальной жизни не встретишь супергероя из комиксов, зато в ней есть настоящие герои. Харизматичный   и гламурная Убивашка обрели новую команду поддержки во главе с Полковником Америка. Но кроме обычных мафиози, над городом нависает новая угроза — молодой мажор с очень дурным характером и целой армией отмороженных наемников.

Продолжительность: 01:43:00
Качество видео: BDRip 1080p
Видеокодек: MPEG-4 AVC/H.264
Битрейт видео: ~10.6 Mbps
Размер кадра: 1920x800
Аудио #1: Русский: DTS, 48.0 KHz, 6 ch, 768 Kbps, CBR
Аудио #2: Русский: AC-3, 48.0 KHz, 6 ch, 448 Kbps, CBR
Аудио #3: Английский: DTS, 48.0 KHz, 6 ch, 1510 Kbps, CBR
Аудио #4: Английский: AC-3 Dolby Digital, 48.0 KHz, 2 ch, 192 Kbps, CBR

MediaInfo

Общее
Уникальный идентификатор : 242665514292635436834805298585783537383 (0xB68FAD94553DAC41830C4A6807088EE7)
Полное имя : D:\Фильмы\Pipec.2.2013.D.BDRip.1080p.mkv
Формат : Matroska
Версия формата : Version 2
Размер файла : 9,69 Гбайт
Продолжительность : 1 ч. 43 м.
Общий поток : 13,5 Мбит/сек
Название фильма : Kick-Ass 2 (2013) | Rip by CHD
Дата кодирования : UTC 2013-12-08 04:38:10
Программа кодирования : mkvmerge v6.3.0 ('You can't stop me!') built on Jun 28 2013 20:09:41
Библиотека кодирования : libebml v1.3.0 + libmatroska v1.4.0
Видео
Идентификатор : 1
Формат : AVC
Формат/Информация : Advanced Video Codec
Профиль формата : High@L4.1
Параметр CABAC формата : Да
Параметр ReFrames формата : 5 кадров
Идентификатор кодека : V_MPEG4/ISO/AVC
Продолжительность : 1 ч. 43 м.
Битрейт : 10,6 Мбит/сек
Ширина : 1920 пикселей
Высота : 800 пикселей
Соотношение сторон : 2,40:1
Режим частоты кадров : Постоянный
Частота кадров : 23,976 кадра/сек
Цветовое пространство : YUV
Субдискретизация насыщенности : 4:2:0
Битовая глубина : 8 бит
Тип развёртки : Прогрессивная
Бит/(Пиксели*Кадры) : 0.287
Размер потока : 7,40 Гбайт (76%)
Заголовок : Kick-Ass 2 (2013) by bog3417
Библиотека кодирования : x264 core 138 r2356 a1d3d17
Настройки программы : cabac=1 / ref=5 / deblock=1:-3:-3 / analyse=0x3:0x113 / me=umh / subme=10 / psy=1 / psy_rd=1.00:0.05 / mixed_ref=1 / me_range=32 / chroma_me=1 / trellis=2 / 8x8dct=1 / cqm=0 / deadzone=21,11 / fast_pskip=0 / chroma_qp_offset=-2 / threads=18 / lookahead_threads=1 / sliced_threads=0 / nr=0 / decimate=1 / interlaced=0 / bluray_compat=0 / constrained_intra=0 / bframes=5 / b_pyramid=2 / b_adapt=2 / b_bias=0 / direct=3 / weightb=1 / open_gop=0 / weightp=2 / keyint=250 / keyint_min=23 / scenecut=40 / intra_refresh=0 / rc=2pass / mbtree=0 / bitrate=10554 / ratetol=1.0 / qcomp=0.70 / qpmin=0 / qpmax=69 / qpstep=4 / cplxblur=20.0 / qblur=0.5 / ip_ratio=1.40 / pb_ratio=1.30 / aq=2:1.00
Язык : English
Default : Да
Forced : Нет
Аудио #1
Идентификатор : 2
Формат : DTS
Формат/Информация : Digital Theater Systems
Режим : 16
Параметр Endianness формата : Big
Идентификатор кодека : A_DTS
Продолжительность : 1 ч. 43 м.
Вид битрейта : Постоянный
Битрейт : 768 Кбит/сек
Каналы : 6 каналов
Расположение каналов : Front: L C R, Side: L R, LFE
Частота : 48,0 КГц
Битовая глубина : 24 бит
Метод сжатия : С потерями
Размер потока : 566 Мбайт (6%)
Заголовок : DTS 5.1 - 768 kbps |Дубляж, BD CEE|
Язык : Russian
Default : Да
Forced : Нет
Аудио #2
Идентификатор : 3
Формат : AC-3
Формат/Информация : Audio Coding 3
Расширение режима : CM (complete main)
Параметр Endianness формата : Big
Идентификатор кодека : A_AC3
Продолжительность : 1 ч. 43 м.
Вид битрейта : Постоянный
Битрейт : 448 Кбит/сек
Каналы : 6 каналов
Расположение каналов : Front: L C R, Side: L R, LFE
Частота : 48,0 КГц
Битовая глубина : 16 бит
Метод сжатия : С потерями
Размер потока : 330 Мбайт (3%)
Заголовок : DD 5.1 - 448 kbps |Дубляж, BD CEE|
Язык : Russian
Default : Нет
Forced : Нет
Аудио #3
Идентификатор : 4
Формат : DTS
Формат/Информация : Digital Theater Systems
Режим : 16
Параметр Endianness формата : Big
Идентификатор кодека : A_DTS
Продолжительность : 1 ч. 43 м.
Вид битрейта : Постоянный
Битрейт : 1509 Кбит/сек
Каналы : 6 каналов
Расположение каналов : Front: L C R, Side: L R, LFE
Частота : 48,0 КГц
Битовая глубина : 24 бит
Метод сжатия : С потерями
Размер потока : 1,09 Гбайт (11%)
Заголовок : DTS 5.1 - 1509 kbps |Оригинал|
Язык : English
Default : Нет
Forced : Нет
Аудио #4
Идентификатор : 5
Формат : AC-3
Формат/Информация : Audio Coding 3
Профиль формата : Dolby Digital
Расширение режима : CM (complete main)
Параметр Endianness формата : Big
Идентификатор кодека : A_AC3
Продолжительность : 1 ч. 43 м.
Вид битрейта : Постоянный
Битрейт : 192 Кбит/сек
Каналы : 2 канала
Расположение каналов : Front: L R
Частота : 48,0 КГц
Битовая глубина : 16 бит
Метод сжатия : С потерями
Размер потока : 141 Мбайт (1%)
Заголовок : DD 2.0 - 192 kbps |Комментарии|
Язык : English
Default : Нет
Forced : Нет
Текст #1
Идентификатор : 6
Формат : UTF-8
Идентификатор кодека : S_TEXT/UTF8
Идентификатор кодека/Информация : UTF-8 Plain Text
Заголовок : Forsed
Язык : Russian
Default : Да
Forced : Нет
Текст #2
Идентификатор : 7
Формат : UTF-8
Идентификатор кодека : S_TEXT/UTF8
Идентификатор кодека/Информация : UTF-8 Plain Text
Язык : Russian
Default : Нет
Forced : Нет
Текст #3
Идентификатор : 8
Формат : UTF-8
Идентификатор кодека : S_TEXT/UTF8
Идентификатор кодека/Информация : UTF-8 Plain Text
Язык : English
Default : Нет
Forced : Нет
Меню
00:00:00.000 : en:00:00:00.000
00:05:58.191 : en:00:05:58.191
00:10:37.929 : en:00:10:37.929
00:14:08.306 : en:00:14:08.306
00:19:11.108 : en:00:19:11.108
00:23:11.348 : en:00:23:11.348
00:30:20.444 : en:00:30:20.444
00:35:25.498 : en:00:35:25.498
00:40:13.786 : en:00:40:13.786
00:45:37.193 : en:00:45:37.193
00:52:35.778 : en:00:52:35.778
00:58:02.396 : en:00:58:02.396
01:00:37.843 : en:01:00:37.843
01:05:36.099 : en:01:05:36.099
01:09:57.944 : en:01:09:57.944
01:15:56.343 : en:01:15:56.343
01:21:05.486 : en:01:21:05.486
01:23:32.549 : en:01:23:32.549
01:33:05.538 : en:01:33:05.538
01:36:38.251 : en:01:36:38.251
Скриншоты:
[th]http://img.torrentsclub.org/di/9ZM4/9c9a1e01a028dd2...6770753.png[/th] [th]http://img.torrentsclub.org/di/KUTJ/17dc9cf5089f5c2...6217cd8.png[/th] [th]http://img.torrentsclub.org/di/R88D/f203659eedf5070...d8f0aad.png[/th]
Время раздачи: 24/7
(до 5 скачавших)

[Цитировать]



Показать сообщения:    

Текущее время: 08-Дек 07:08

Часовой пояс: UTC + 3


Вы не можете начинать темы
Вы не можете отвечать на сообщения
Вы не можете редактировать свои сообщения
Вы не можете удалять свои сообщения
Вы не можете голосовать в опросах
Вы не можете прикреплять файлы к сообщениям
Вы не можете скачивать файлы

!ВНИМАНИЕ!
Сайт не предоставляет электронные версии произведений, а занимается лишь коллекционированием и каталогизацией ссылок, присылаемых и публикуемых на форуме нашими читателями. Если вы являетесь правообладателем какого-либо представленного материала и не желаете, чтобы ссылка на него находилась в нашем каталоге, свяжитесь с нами, и мы незамедлительно удалим ее. Файлы для обмена на трекере предоставлены пользователями сайта, и администрация не несет ответственности за их содержание. Просьба не заливать файлы, защищенные авторскими правами, а также файлы нелегального содержания!