[ Сегодня идет свободное скачивание без начисления Download ]


Статистика раздачи
Нет
 
   
 
Top  
 
 
- 2 / Kick-Ass 2 (2013) BDRemux
«You Can't Fight Your Destiny»
- Год выпуска: 2013
Производство: США, Великобритания / Universal Pictures
Жанр: Боевик, Комедия, Криминал
Перевод: Дублированный [лицензия]
Субтитры: Вшитые отключаемые
Язык субтитров: Русский (forced, full), украинский, английский (full, SDH, SDH-Colored)
Режиссер: Джефф Уодлоу / Jeff Wadlow
Продюсер: Адам Болинг, Тарквин Пэк, Брэд Питт
Актеры: Аарон Тейлор-Джонсон, Хлоя Грейс Морец, Кристофер Минц-Плассе, Джим Керри, Ольга Куркулина, Кларк Дьюк, Линди Бут, Дональд Фэйсон, Моррис Честнат, Август Прю
Описание фильма:
В реальной жизни не встретишь супергероя из комиксов, зато в ней есть настоящие герои. Харизматичный Пи... и гламурная Убивашка обрели новую команду поддержки во главе с Полковником Америка. Но кроме обычных мафиози, над городом нависает новая угроза — молодой мажор с очень дурным характером и целой армией отмороженных наемников.

Дата мировой премьеры: 14 августа 2013
Дата российской премьеры: 5 сентября 2013, «UPI»
Дата выхода DVD релиза: 19 декабря 2013, «20 Век Фокс СНГ»
Дата выхода Blu-Ray релиза: 19 декабря 2013, «20 Век Фокс СНГ»
Рейтинг MPAA: R
Возраст: 18+
Продолжительность: 01:43:00
Качество видео: BDRemux 1080p
Видео: MPEG-4 AVC Video, 1920x1080, ~27805 kbps, 23.976 fps
Аудио 1: DTS 5.1, 768 kbps, 48 kHz [Русский - дублированный «Blu-ray CEE»]
Аудио 2: AC3 5.1, 448 kbps, 48 kHz [Русский - дублированный «Blu-ray CEE»]
Аудио 3: DTS-HD MA 5.1, 2106 kbps, 48 kHz [Английский - оригинал]
Аудио 4: AC3 2.1, 192 kbps, 48 kHz [Английский - комментарий]

Отчёт MediaInfo

Полное имя : D:\ .2-Kick.Ass.2(2013).BDRemux.[1080p].mkv
Формат : Matroska
Версия формата : Version 2
Размер файла : 22,3 Гбайт
Продолжительность : 1 ч. 43 м.
Режим общего битрейта : Переменный
Общий поток : 30,9 Мбит/сек
Название фильма : Kick-Ass 2 (2013)
Дата кодирования : UTC 2013-12-08 20:00:37
Программа кодирования : mkvmerge v5.7.0 ('The Whirlwind') built on Aug 7 2012 14:11:40
Библиотека кодирования : libebml v1.2.3 + libmatroska v1.3.0
Attachment : Yes
Видео
Идентификатор : 1
Формат : AVC
Формат/Информация : Advanced Video Codec
Профиль формата : High@L4.1
Параметр CABAC формата : Да
Параметр ReFrames формата : 4 кадра
Параметр GOP формата : M=3, N=12
Идентификатор кодека : V_MPEG4/ISO/AVC
Продолжительность : 1 ч. 43 м.
Вид битрейта : Переменный
Битрейт : 27,4 Мбит/сек
Максимальный битрейт : 33,0 Мбит/сек
Ширина : 1920 пикселей
Высота : 1080 пикселей
Соотношение сторон : 16:9
Режим частоты кадров : Постоянный
Частота кадров : 23,976 кадра/сек
Цветовое пространство : YUV
Субдискретизация насыщенности : 4:2:0
Битовая глубина : 8 бит
Тип развёртки : Прогрессивная
Бит/(Пиксели*Кадры) : 0.551
Размер потока : 19,7 Гбайт (88%)
Заголовок : .2-Kick.Ass.2(2013).BDRemux.[1080p]
Язык : English
Default : Да
Forced : Нет
Аудио #1
Идентификатор : 2
Формат : DTS
Формат/Информация : Digital Theater Systems
Идентификатор кодека : A_DTS
Продолжительность : 1 ч. 43 м.
Вид битрейта : Постоянный
Битрейт : 755 Кбит/сек
Каналы : 6 каналов
Расположение каналов : Front: L C R, Side: L R, LFE
Частота : 48,0 КГц
Битовая глубина : 24 бит
Метод сжатия : С потерями
Размер потока : 556 Мбайт (2%)
Заголовок : DTS 5.1 / 768 kbps / Dub (Blu-ray CEE)
Язык : Russian
Default : Да
Forced : Нет
Аудио #2
Идентификатор : 3
Формат : AC-3
Формат/Информация : Audio Coding 3
Расширение режима : CM (complete main)
Параметр Endianness формата : Big
Идентификатор кодека : A_AC3
Продолжительность : 1 ч. 43 м.
Вид битрейта : Постоянный
Битрейт : 448 Кбит/сек
Каналы : 6 каналов
Расположение каналов : Front: L C R, Side: L R, LFE
Частота : 48,0 КГц
Битовая глубина : 16 бит
Метод сжатия : С потерями
Размер потока : 330 Мбайт (1%)
Заголовок : AC3 5.1 / 448 kbps / Dub (Blu-ray CEE)
Язык : Russian
Default : Нет
Forced : Нет
Аудио #3
Идентификатор : 4
Формат : DTS
Формат/Информация : Digital Theater Systems
Профиль формата : MA / Core
Идентификатор кодека : A_DTS
Продолжительность : 1 ч. 43 м.
Вид битрейта : Переменный
Битрейт : 1561 Кбит/сек / 1510 Кбит/сек
Каналы : 6 каналов
Расположение каналов : Front: L C R, Side: L R, LFE
Частота : 48,0 КГц
Битовая глубина : 16 бит
Метод сжатия : Без потерь / Lossy
Заголовок : DTS-HD MA 5.1 / 2106 kbps / Original
Язык : English
Default : Нет
Forced : Нет
Аудио #4
Идентификатор : 5
Формат : AC-3
Формат/Информация : Audio Coding 3
Профиль формата : Dolby Digital
Расширение режима : CM (complete main)
Параметр Endianness формата : Big
Идентификатор кодека : A_AC3
Продолжительность : 1 ч. 43 м.
Вид битрейта : Постоянный
Битрейт : 192 Кбит/сек
Каналы : 2 канала
Расположение каналов : Front: L R
Частота : 48,0 КГц
Битовая глубина : 16 бит
Метод сжатия : С потерями
Размер потока : 141 Мбайт (1%)
Заголовок : AC3 2.0 / 192 kbps / Commentary
Язык : English
Default : Нет
Forced : Нет
Текст #1
Идентификатор : 6
Формат : UTF-8
Идентификатор кодека : S_TEXT/UTF8
Идентификатор кодека/Информация : UTF-8 Plain Text
Заголовок : Forced
Язык : Russian
Default : Да
Forced : Нет
Текст #2
Идентификатор : 7
Формат : UTF-8
Идентификатор кодека : S_TEXT/UTF8
Идентификатор кодека/Информация : UTF-8 Plain Text
Заголовок : Full
Язык : Russian
Default : Нет
Forced : Нет
Текст #3
Идентификатор : 8
Формат : UTF-8
Идентификатор кодека : S_TEXT/UTF8
Идентификатор кодека/Информация : UTF-8 Plain Text
Заголовок : Full
Язык : Ukrainian
Default : Нет
Forced : Нет
Текст #4
Идентификатор : 9
Формат : UTF-8
Идентификатор кодека : S_TEXT/UTF8
Идентификатор кодека/Информация : UTF-8 Plain Text
Заголовок : Full
Язык : English
Default : Нет
Forced : Нет
Текст #5
Идентификатор : 10
Формат : UTF-8
Идентификатор кодека : S_TEXT/UTF8
Идентификатор кодека/Информация : UTF-8 Plain Text
Заголовок : SDH
Язык : English
Default : Нет
Forced : Нет
Текст #6
Идентификатор : 11
Формат : UTF-8
Идентификатор кодека : S_TEXT/UTF8
Идентификатор кодека/Информация : UTF-8 Plain Text
Заголовок : SDH (Colored)
Язык : English
Default : Нет
Forced : Нет
Меню
00:00:00.000 : en:Chapter 1
00:05:58.191 : en:Chapter 2
00:10:37.928 : en:Chapter 3
00:14:08.305 : en:Chapter 4
00:19:11.108 : en:Chapter 5
00:23:11.348 : en:Chapter 6
00:30:20.443 : en:Chapter 7
00:35:25.498 : en:Chapter 8
00:40:13.786 : en:Chapter 9
00:45:37.192 : en:Chapter 10
00:52:35.777 : en:Chapter 11
00:58:02.395 : en:Chapter 12
01:00:37.842 : en:Chapter 13
01:05:36.098 : en:Chapter 14
01:09:57.943 : en:Chapter 15
01:15:56.343 : en:Chapter 16
01:21:05.485 : en:Chapter 17
01:23:32.549 : en:Chapter 18
01:33:05.537 : en:Chapter 19
01:36:38.250 : en:Chapter 20
Скриншоты:
[th]http://img.torrentsclub.org/di/WY9D/059a308fe53ec05...47f3e4a.png[/th] [th]http://img.torrentsclub.org/di/3DOP/0214a58d657e237...57507ae.png[/th] [th]http://img.torrentsclub.org/di/15QY/726bd9a95a242f1...e538ca6.png[/th]
Время раздачи: 24/7 (до 10 скачавших)

[Цитировать]



Показать сообщения:    

Текущее время: 02-Дек 21:02

Часовой пояс: UTC + 3


Вы не можете начинать темы
Вы не можете отвечать на сообщения
Вы не можете редактировать свои сообщения
Вы не можете удалять свои сообщения
Вы не можете голосовать в опросах
Вы не можете прикреплять файлы к сообщениям
Вы не можете скачивать файлы

!ВНИМАНИЕ!
Сайт не предоставляет электронные версии произведений, а занимается лишь коллекционированием и каталогизацией ссылок, присылаемых и публикуемых на форуме нашими читателями. Если вы являетесь правообладателем какого-либо представленного материала и не желаете, чтобы ссылка на него находилась в нашем каталоге, свяжитесь с нами, и мы незамедлительно удалим ее. Файлы для обмена на трекере предоставлены пользователями сайта, и администрация не несет ответственности за их содержание. Просьба не заливать файлы, защищенные авторскими правами, а также файлы нелегального содержания!