[ Сегодня идет свободное скачивание без начисления Download ]


Статистика раздачи
Нет
 
   
 
Top  
 
 
-Война миров Z / World War Z (2013) BDRip [720p] [Unrated]- -Год выпуска: 2013
Производство: США / Plan B Entertainment, Apparatus Productions
Жанр: Ужасы, Фантастика, Боевик, Триллер, Драма
Перевод: Дублированный + 3 x Авторский (одноголосый) + Оригинал
Субтитры: Вшитые отключаемые
Язык субтитров: Русский (Forced, Full), Английский (Full)-Дата мировой премьеры: 20 июня 2013
Дата российской премьеры: 27 июня 2013, «Централ Партнершип»
Дата выхода DVD/Blu Ray релиза: 30 сентября 2013, «Новый Диск»-Режиссер: Марк Форстер
Актеры: Брэд Питт, Мэттью Фокс, Мирель Инос, Майло Вентимилья, Джеймс Бэдж Дэйл, Дэвид Морс, Люси Расселл, Дэвид Эндрюс-Описание фильма: Нападение живых мертвецов — не шутка и не сказка. Зомби в одночасье стали реальностью — и реальность эта грозит гибелью всему человечеству. Гниющие, полуразложившиеся, они практически неуязвимы — зато мельчайшее ранение, нанесенное ими живому человеку, грозит превратить его в зомби. Армия живых мертвецов захватывает страну за страной, континент за континентом. Гибнут, пытаясь предотвратить грядущий Апокалипсис, тысячи военных России, десятки и сотни партизан Европы, Азии и США. Земля — на краю катастрофы. И совершенно неизвестно, как бороться с противником, который уже мертв…-

-Продолжительность: 02:03:04
Качество видео: BDRip 720p-Видео: MPEG-4 AVC/H.264; 1280х534; ~6000 Кbps; High@L4.1; 23.976 fps
Аудио#1: [Русский]: AC3 5.1; 448.00 kbps; 48 kHz; 16 bit |Дубляж| [Paramount Pictures]
Аудио#2: [Русский]: AC3 5.1; 448.00 kbps; 48 kHz; 16 bit |Авторский| [Юрий Сербин]
Аудио#3: [Русский]: AC3 5.1; 448.00 kbps; 48 kHz; 16 bit |Авторский| [Андрей Дольский]
Аудио#4: [Русский]: AC3 5.1; 640.00 kbps; 48 kHz; 24 bit |Авторский| [Андрей Гаврилов]
Аудио#5: [Английский]: AC3 5.1; 448.00 kbps; 48 kHz; 16 bit |Оригинал|
Примечание: Это расширенная версия фильма, поэтому лицензионный дубляж со вставками альтернативного дублирования! Места без перевода отсутствуют!
Дополнительно: Сохранены оригинальные чаптеры как на Blu-ray.

MediaInfo:

General
Unique ID                                : 246557192451047812307839998263691259119 (0xB97D3020693475D5923077C78EAF2CEF)
Complete name                            : F:\Vojna.mirov.Z.UNRATED.2013.BDRip.720p.mkv
Format                                   : Matroska
Format version                           : Version 4 / Version 2
File size                                : 7.25 GiB
Duration                                 : 2h 3mn
Overall bit rate                         : 8 434 Kbps
Movie name                               : ReJIiZ MediaClub by BenderBEST
Encoded date                             : UTC 2013-12-09 06:20:00
Writing application                      : mkvmerge v6.5.0 ('Isn't she lovely') built on Oct 20 2013 12:50:05
Writing library                          : libebml v1.3.0 + libmatroska v1.4.1
Video
ID                                       : 1
Format                                   : AVC
Format/Info                              : Advanced Video Codec
Format profile                           : [url=mailto:High@L4.1]High@L4.1[/url]
Format settings, CABAC                   : Yes
Format settings, ReFrames                : 12 frames
Codec ID                                 : V_MPEG4/ISO/AVC
Duration                                 : 2h 3mn
Bit rate                                 : 6 000 Kbps
Width                                    : 1 280 pixels
Height                                   : 534 pixels
Display aspect ratio                     : 2.40:1
Frame rate                               : 23.976 fps
Color space                              : YUV
Chroma subsampling                       : 4:2:0
Bit depth                                : 8 bits
Scan type                                : Progressive
Bits/(Pixel*Frame)                       : 0.366
Stream size                              : 5.02 GiB (69%)
Writing library                          : x264 core 138 r2358kMod 9e941d1
Encoding settings                        : cabac=1 / ref=12 / deblock=1:-3:-3 / analyse=0x3:0x133 / me=esa / subme=11 / psy=1 / fade_compensate=0.00 / psy_rd=0.95:0.00 / mixed_ref=1 / me_range=24 / chroma_me=1 / trellis=2 / 8x8dct=1 / cqm=0 / deadzone=21,11 / fast_pskip=0 / chroma_qp_offset=-2 / threads=12 / lookahead_threads=2 / sliced_threads=0 / nr=0 / decimate=1 / interlaced=0 / bluray_compat=0 / constrained_intra=0 / bframes=8 / b_pyramid=2 / b_adapt=2 / b_bias=0 / direct=3 / weightb=1 / open_gop=0 / weightp=2 / keyint=250 / keyint_min=23 / scenecut=40 / intra_refresh=0 / rc=2pass / mbtree=0 / bitrate=6000 / ratetol=1.0 / qcomp=0.70 / qpmin=0 / qpmax=69 / qpstep=4 / cplxblur=20.0 / qblur=0.5 / ip_ratio=1.40 / pb_ratio=1.30 / aq=1:1.00 / zones=720,1156,b=1.5/1165,1760,b=1.5/3891,3925,b=1.8
/25306,25398,b=1.2/25443,26210,b=1.2/26245,27043,b=1.2/27427,27680,
b=1.2/33139,33254,b=1.2/33333,33415,b=1.2/33597,33680,b=1.2/34980,
35037,b=1.2/35278,35957,b=1.2/36091,36440,b=1.2/36460,36745,b=1.2
/36942,37144,b=1.2/55595,55777,b=1.2/56110,56230,b=1.2/56297,56478,
b=1.2/56887,56929,b=1.2/57111,57174,b=1.2/70652,70726,b=1.2/70727,
71582,b=1.2/71638,71738,b=1.2/71915,72604,b=1.2/72742,74245,b=1.2
/74317,74403,b=1.2/74749,74753,b=1.2/74964,75035,b=1.2/75461,75516,b=
1.2/75626,75714,b=1.2/105101,105177,b=1.2/104911,104998,b=
1.2/112253,112264,b=1.2/112273,112293,b=1.2/113655,113658,b=
1.2/114629,114679,b=1.2/123288,123295,b=
1.2/142336,142416,b=1.2/142527,142551,b=1.2
Language                                 : English
Default                                  : Yes
Forced                                   : No
Matrix coefficients                      : BT.709-5, BT.1361, IEC 61966-2-4 709, SMPTE RP177
Audio #1
ID                                       : 2
Format                                   : AC-3
Format/Info                              : Audio Coding 3
Mode extension                           : CM (complete main)
Format settings, Endianness              : Big
Codec ID                                 : A_AC3
Duration                                 : 2h 3mn
Bit rate mode                            : Constant
Bit rate                                 : 448 Kbps
Channel(s)                               : 6 channels
Channel positions                        : Front: L C R, Side: L R, LFE
Sampling rate                            : 48.0 KHz
Bit depth                                : 16 bits
Compression mode                         : Lossy
Stream size                              : 394 MiB (5%)
Title                                    : Дубляж + вставками альтернативного дубляжа
Language                                 : Russian
Default                                  : Yes
Forced                                   : No
Audio #2
ID                                       : 3
Format                                   : AC-3
Format/Info                              : Audio Coding 3
Mode extension                           : CM (complete main)
Format settings, Endianness              : Big
Codec ID                                 : A_AC3
Duration                                 : 2h 3mn
Bit rate mode                            : Constant
Bit rate                                 : 448 Kbps
Channel(s)                               : 6 channels
Channel positions                        : Front: L C R, Side: L R, LFE
Sampling rate                            : 48.0 KHz
Bit depth                                : 16 bits
Compression mode                         : Lossy
Stream size                              : 394 MiB (5%)
Title                                    : Юрий Сербин
Language                                 : Russian
Default                                  : No
Forced                                   : No
Audio #3
ID                                       : 4
Format                                   : AC-3
Format/Info                              : Audio Coding 3
Mode extension                           : CM (complete main)
Format settings, Endianness              : Big
Codec ID                                 : A_AC3
Duration                                 : 2h 3mn
Bit rate mode                            : Constant
Bit rate                                 : 448 Kbps
Channel(s)                               : 6 channels
Channel positions                        : Front: L C R, Side: L R, LFE
Sampling rate                            : 48.0 KHz
Bit depth                                : 16 bits
Compression mode                         : Lossy
Stream size                              : 394 MiB (5%)
Title                                    : Андрей Дольский
Language                                 : Russian
Default                                  : No
Forced                                   : No
Audio #4
ID                                       : 5
Format                                   : AC-3
Format/Info                              : Audio Coding 3
Mode extension                           : CM (complete main)
Format settings, Endianness              : Big
Codec ID                                 : A_AC3
Duration                                 : 2h 3mn
Bit rate mode                            : Constant
Bit rate                                 : 640 Kbps
Channel(s)                               : 6 channels
Channel positions                        : Front: L C R, Side: L R, LFE
Sampling rate                            : 48.0 KHz
Bit depth                                : 16 bits
Compression mode                         : Lossy
Stream size                              : 563 MiB (8%)
Title                                    : Андрей Гаврилов
Language                                 : Russian
Default                                  : No
Forced                                   : No
Audio #5
ID                                       : 6
Format                                   : AC-3
Format/Info                              : Audio Coding 3
Mode extension                           : CM (complete main)
Format settings, Endianness              : Big
Codec ID                                 : A_AC3
Duration                                 : 2h 3mn
Bit rate mode                            : Constant
Bit rate                                 : 448 Kbps
Channel(s)                               : 6 channels
Channel positions                        : Front: L C R, Side: L R, LFE
Sampling rate                            : 48.0 KHz
Bit depth                                : 16 bits
Compression mode                         : Lossy
Stream size                              : 394 MiB (5%)
Language                                 : English
Default                                  : No
Forced                                   : No
Text #1
ID                                       : 7
Format                                   : UTF-8
Codec ID                                 : S_TEXT/UTF8
Codec ID/Info                            : UTF-8 Plain Text
Title                                    : forced
Language                                 : Russian
Default                                  : Yes
Forced                                   : No
Text #2
ID                                       : 8
Format                                   : UTF-8
Codec ID                                 : S_TEXT/UTF8
Codec ID/Info                            : UTF-8 Plain Text
Language                                 : Russian
Default                                  : No
Forced                                   : No
Text #3
ID                                       : 9
Format                                   : UTF-8
Codec ID                                 : S_TEXT/UTF8
Codec ID/Info                            : UTF-8 Plain Text
Language                                 : English
Default                                  : No
Forced                                   : No
Menu
00:00:00.000                             : en:Chapter 01
00:05:05.179                             : en:Chapter 02
00:13:53.999                             : en:Chapter 03
00:22:43.195                             : en:Chapter 04
00:29:46.034                             : en:Chapter 05
00:35:21.494                             : en:Chapter 06
00:42:23.457                             : en:Chapter 07
00:52:37.946                             : en:Chapter 08
00:58:53.821                             : en:Chapter 09
01:07:18.868                             : en:Chapter 10
01:15:11.757                             : en:Chapter 11
01:24:02.037                             : en:Chapter 12
01:29:08.801                             : en:Chapter 13
01:34:50.518                             : en:Chapter 14
01:43:45.469                             : en:Chapter 15
01:52:17.981                             : en:Chapter 16
01:55:51.653                             : en:Chapter 17
02:03:03.417                             : en:Chapter 18
Скриншоты:
[th]http://img.torrentsclub.org/di/RWU7/3f18999d55ce566...f8a9de7.png[/th] [th]http://img.torrentsclub.org/di/BC10/40bff2d211c3e90...246bc69.png[/th] [th]http://img.torrentsclub.org/di/3SCU/631d035ba106f0c...07bb916.png[/th]
-Время раздачи:24/7 до 5-ти скачавших, дальше по мере возможности.

[Цитировать]



Показать сообщения:    

Текущее время: 08-Дек 03:13

Часовой пояс: UTC + 3


Вы не можете начинать темы
Вы не можете отвечать на сообщения
Вы не можете редактировать свои сообщения
Вы не можете удалять свои сообщения
Вы не можете голосовать в опросах
Вы не можете прикреплять файлы к сообщениям
Вы не можете скачивать файлы

!ВНИМАНИЕ!
Сайт не предоставляет электронные версии произведений, а занимается лишь коллекционированием и каталогизацией ссылок, присылаемых и публикуемых на форуме нашими читателями. Если вы являетесь правообладателем какого-либо представленного материала и не желаете, чтобы ссылка на него находилась в нашем каталоге, свяжитесь с нами, и мы незамедлительно удалим ее. Файлы для обмена на трекере предоставлены пользователями сайта, и администрация не несет ответственности за их содержание. Просьба не заливать файлы, защищенные авторскими правами, а также файлы нелегального содержания!