[ Сегодня идет свободное скачивание без начисления Download ]


Статистика раздачи
Нет
 
   
 
Top  
 
 
-Астрал: Глава 2 / Insidious: Chapter 2 (2013) BDRip- Год выпуска: 2013
Производство: США | Blumhouse Productions, Entertainment One, FilmDistrict
Жанр: Ужасы, Триллер
Перевод: Одноголосый, любительский, закадровый [Vano]
Субтитры: Отсутствуют
Режиссер: Джеймс Ван
Актеры: Патрик Уилсон, Роуз Бирн, Лин Шэй, Тай Симпкинс, Барбара Херши, Стив Култер, Ли Уоннелл, Энгус Сэмпсон, Эндрю Эстор, Хэнк Харрис
Описание фильма:
Семья Ламберт стремится раскрыть тайну, из-за которой они оказались в опасной связи с миром духов…

Дата мировой премьеры: 13 сентября 2013
Дата российской премьеры: 3 октября 2013, «WDSSPR»
Дата выхода DVD релиза: 21 января 2014, «Columbia/Sony»
Продолжительность: 01:45:52
Качество видео: BDRip
Видеокодек: XviD MPEG-4
Битрейт видео: ~1577 kbps avg, 23.976 fps, 0.30 bit/pixel
Размер кадра: 720x304 (2.35:1)
Аудио : AC3 5.1, 448 kbps - Русский

MediaInfo

Общее
Полное имя                               : D:\Фильмы\Insidious.Chapter.2.2013.L1.BDRip.avi
Формат                                   : AVI
Формат/Информация                        : Audio Video Interleave
Размер файла                             : 1,51 Гбайт
Продолжительность                        : 1 ч. 45 м.
Общий поток                              : 2035 Кбит/сек
Программа кодирования                    : VirtualDubMod 1.5.10.3 (build 2550/release)
Библиотека кодирования                   : VirtualDubMod build 2550/release
Видео
Идентификатор                            : 0
Формат                                   : MPEG-4 Visual
Профиль формата                          : Advanced Simple@L5
Параметр BVOP формата                    : 2
Параметр QPel формата                    : Нет
Параметр GMC формата                     : Без точки перехода
Параметр матрицы формата                 : Default (H.263)
Режим смешивания                         : Сжатый битовый поток
Идентификатор кодека                     : XVID
Идентификатор кодека/Подсказка           : XviD
Продолжительность                        : 1 ч. 45 м.
Битрейт                                  : 1578 Кбит/сек
Ширина                                   : 720 пикселей
Высота                                   : 304 пикселя
Соотношение сторон                       : 2,35:1
Частота кадров                           : 23,976 кадра/сек
Цветовое пространство                    : YUV
Субдискретизация насыщенности            : 4:2:0
Битовая глубина                          : 8 бит
Тип развёртки                            : Прогрессивная
Метод сжатия                             : С потерями
Бит/(Пиксели*Кадры)                      : 0.301
Размер потока                            : 1,17 Гбайт (78%)
Библиотека кодирования                   : XviD 64
Аудио
Идентификатор                            : 1
Формат                                   : AC-3
Формат/Информация                        : Audio Coding 3
Расширение режима                        : CM (complete main)
Параметр Endianness формата              : Big
Идентификатор кодека                     : 2000
Продолжительность                        : 1 ч. 45 м.
Вид битрейта                             : Постоянный
Битрейт                                  : 448 Кбит/сек
Каналы                                   : 6 каналов
Расположение каналов                     : Front: L C R, Side: L R, LFE
Частота                                  : 48,0 КГц
Битовая глубина                          : 16 бит
Метод сжатия                             : С потерями
Размер потока                            : 339 Мбайт (22%)
Выравнивание                             : Разделение по промежуткам
Продолжительность промежутка             : 42  мс. (1,00 видеокадр)
Время предзагрузки промежутка            : 500  мс.
Скриншоты:
[th]http://img.torrentsclub.org/di/BDEM/944ce894dc07db2...081cfc4.png[/th] [th]http://img.torrentsclub.org/di/1VHR/e141940037cb8eb...d98fc41.png[/th] [th]http://img.torrentsclub.org/di/YORS/eb0435b75ffdfbe...14e0ee9.png[/th]
Время раздачи: До 5-ти скачавших

[Цитировать]

Топик был перенесен из форума Новинки кинопроката в форум Ужасы
Henkok



Показать сообщения:    

Текущее время: 09-Дек 10:39

Часовой пояс: UTC + 3


Вы не можете начинать темы
Вы не можете отвечать на сообщения
Вы не можете редактировать свои сообщения
Вы не можете удалять свои сообщения
Вы не можете голосовать в опросах
Вы не можете прикреплять файлы к сообщениям
Вы не можете скачивать файлы

!ВНИМАНИЕ!
Сайт не предоставляет электронные версии произведений, а занимается лишь коллекционированием и каталогизацией ссылок, присылаемых и публикуемых на форуме нашими читателями. Если вы являетесь правообладателем какого-либо представленного материала и не желаете, чтобы ссылка на него находилась в нашем каталоге, свяжитесь с нами, и мы незамедлительно удалим ее. Файлы для обмена на трекере предоставлены пользователями сайта, и администрация не несет ответственности за их содержание. Просьба не заливать файлы, защищенные авторскими правами, а также файлы нелегального содержания!