[ Сегодня идет свободное скачивание без начисления Download ]


Статистика раздачи
Нет
 
   
 
Top  
 
 
-Неоспоримый / Undisputed (2002) BDRemux- Русское название: Неоспоримый
Оригинальное название: Undisputed
Год выпуска: 2002
Жанр: Боевик, Драма, Криминал
Описание фильма:
Получив срок за изнасилование и лишившись своего звездного титула, чемпион по боксу в тяжелом весе Джордж Чемберс оказывается в знаменитой своими жестокими порядками тюрьме Свитуотэр, где уже 10 лет неприкасаемым чемпионом является грозный Монро Хатчинс.
Непобедимый Чемберс знает, что в мире нет боксера лучше него, и он готов это доказать. Но и Хатчинс не собирается проигрывать. Это поединок не на жизнь, а на смерть.
Режиссер: Уолтер Хилл / Walter Hill
Актеры: Уэсли Снайпс, Винг Рэймс , Питер Фальк , Майкл Рукер , Джон Седа , Уэс Студи , Фишер Стивенс , Дэйтон Калли , Эми Акино , Джонни Уильямс , Джо Д'Анджерио , Нилс Аллен Стюарт
Продолжительность: 01:33:37
Перевод 1: Профессиональный (двухголосый закадровый) R5
Перевод 2: Профессиональный (двухголосый закадровый)
Язык субтитров: русские, украинские, английские
Вид субтитров: Вшитые

Видеокодек: MPEG-4 AVC/H.264
Битрейт видео: ~21.9 Mbps
Размер кадра: 1920x1080
Качество видео: BDRemux
Аудио:
Аудио: |RUS| Dolby AC3 48000Hz 6ch 448 Kbps / DVO
Аудио 2: |RUS| Dolby AC3 48000Hz 6ch 384 Kbps / DVO
Аудио 3: |ENG| DTS-HD Master Audio / 5.1 / 48 kHz / 2330 kbps / 16-bit (DTS Core: 5.1 / 48 kHz / 1509 kbps / 16-bit) / оригинал

MediaInfo

Format : Matroska
Format version : Version 2
File size : 16.3 GiB
Duration : 1h 33mn
Overall bit rate mode : Variable
Overall bit rate : 24.8 Mbps
Movie name : Неоспоримый / Обсуждению не подлежит / Undisputed (2002) BDRemux 1080p by nextDred
Encoded date : UTC 2012-01-24 03:16:44
Writing application : mkvmerge v5.2.0 ('I can't explain') built on Dec 18 2011 18:12:03
Writing library : libebml v1.2.3 + libmatroska v1.3.0
Video
ID : 6
Format : AVC
Format/Info : Advanced Video Codec
Format profile : High@L4.1
Format settings, CABAC : Yes
Format settings, ReFrames : 4 frames
Muxing mode : Container profile=Unknown@0.0
Codec ID : V_MPEG4/ISO/AVC
Duration : 1h 33mn
Bit rate mode : Variable
Bit rate : 21.9 Mbps
Maximum bit rate : 28.0 Mbps
Width : 1 920 pixels
Height : 1 080 pixels
Display aspect ratio : 16:9
Frame rate : 23.976 fps
Standard : NTSC
Color space : YUV
Chroma subsampling : 4:2:0
Bit depth : 8 bits
Scan type : Progressive
Bits/(Pixel*Frame) : 0.441
Stream size : 14.4 GiB (88%)
Title : Undisputed (2002) BDRemux 1080p by nextDred
Language : English
Default : Yes
Forced : No
Color primaries : BT.709-5, BT.1361, IEC 61966-2-4, SMPTE RP177
Transfer characteristics : BT.709-5, BT.1361
Matrix coefficients : BT.709-5, BT.1361, IEC 61966-2-4 709, SMPTE RP177
Audio #1
ID : 1
Format : AC-3
Format/Info : Audio Coding 3
Mode extension : CM (complete main)
Codec ID : A_AC3
Duration : 1h 33mn
Bit rate mode : Constant
Bit rate : 448 Kbps
Channel(s) : 6 channels
Channel positions : Front: L C R, Side: L R, LFE
Sampling rate : 48.0 KHz
Bit depth : 16 bits
Compression mode : Lossy
Stream size : 300 MiB (2%)
Title : DVO
Language : Russian
Default : Yes
Forced : No
Audio #2
ID : 2
Format : AC-3
Format/Info : Audio Coding 3
Mode extension : CM (complete main)
Codec ID : A_AC3
Duration : 1h 33mn
Bit rate mode : Constant
Bit rate : 384 Kbps
Channel(s) : 6 channels
Channel positions : Front: L C R, Side: L R, LFE
Sampling rate : 48.0 KHz
Bit depth : 16 bits
Compression mode : Lossy
Stream size : 257 MiB (2%)
Title : DVO
Language : Russian
Default : No
Forced : No
Audio #3
ID : 7
Format : DTS
Format/Info : Digital Theater Systems
Format profile : MA / Core
Codec ID : A_DTS
Duration : 1h 33mn
Bit rate mode : Variable
Bit rate : 1 576 Kbps / 1 510 Kbps
Channel(s) : 6 channels
Channel positions : Front: L C R, Side: L R, LFE
Sampling rate : 48.0 KHz
Bit depth : 16 bits
Compression mode : Lossless / Lossy
Title : ENGLISH
Language : English
Default : No
Forced : No
Text #1
ID : 3
Format : UTF-8
Codec ID : S_TEXT/UTF8
Codec ID/Info : UTF-8 Plain Text
Language : Russian
Default : No
Forced : No
Text #2
ID : 4
Format : UTF-8
Codec ID : S_TEXT/UTF8
Codec ID/Info : UTF-8 Plain Text
Language : Ukrainian
Default : No
Forced : No
Text #3
ID : 5
Format : UTF-8
Codec ID : S_TEXT/UTF8
Codec ID/Info : UTF-8 Plain Text
Language : English
Default : No
Forced : No
Menu
00:00:00.000 : en:00:00:00.000
00:07:59.688 : en:00:07:59.688
00:16:05.548 : en:00:16:05.548
00:23:59.813 : en:00:23:59.813
00:31:41.608 : en:00:31:41.608
00:38:46.491 : en:00:38:46.491
00:46:55.896 : en:00:46:55.896
00:54:42.863 : en:00:54:42.863
01:02:23.865 : en:01:02:23.865
01:10:53.082 : en:01:10:53.082
01:17:12.002 : en:01:17:12.002
01:26:25.931 : en:01:26:25.931

Скриншоты

[th]http://img.torrentsclub.org/di/ZVNW/1,2.png[/th] [th]http://img.torrentsclub.org/di/Y13Z/1,2,2.png[/th]
--Неоспоримый 2 / Undisputed 2: Last Man Standing BDRemux- Русское название: Неоспоримый 2
Оригинальное название: Undisputed 2: Last Man Standing
Год выпуска: 2006
Жанр: Криминал, спорт, драма
Описание фильма:
Бывший чемпион мира по боксу во время визита в Россию случайно попадает в криминальную разборку, связанную с высшими правительственными чинами и против него фабрикуется ложное дело. Дорога домой будет долгой и трудной, проходящей через суровую российскую тюрьму…
Режиссер: Айзек Флорентайн / Isaac Florentine
Актеры: Майкл Джей Уайт , Скотт Эдкинс , Бен Кросс , Эли Данкер , Марк Иванир , Валентин Ганев , Велизaр Бинев , Райчо Василев
Продолжительность: 01:37:36
Перевод: Профессиональный (многоголосый закадровый) R5

Видеокодек: WVC1
Битрейт видео: ~20.1Mbps
Размер кадра: 1920x1080
Качество видео: BDRemux
Аудио:
Аудио 1:|RUS| Dolby AC3 48000Hz 6ch 448 Kbps / MVO
Аудио 2:|ENG| DTS-HD Master Audio / 5.1 / 48 kHz / 2309 kbps / 16-bit (DTS Core: 5.1 / 48 kHz / 1509 kbps / 16-bit) / оригинал

MediaInfo

Format : Matroska
Format version : Version 2
File size : 15.5 GiB
Duration : 1h 37mn
Overall bit rate mode : Variable
Overall bit rate : 22.8 Mbps
Movie name : Неоспоримый 2 / Undisputed II: Last Man Standing (2006) BDRemux 1080p by nextDred
Encoded date : UTC 2012-01-24 03:28:59
Writing application : mkvmerge v5.2.0 ('I can't explain') built on Dec 18 2011 18:12:03
Writing library : libebml v1.2.3 + libmatroska v1.3.0
Video
ID : 1
Format : VC-1
Format profile : AP@L3
Codec ID : WVC1
Codec ID/Hint : Microsoft
Duration : 1h 37mn
Bit rate : 20.1 Mbps
Width : 1 920 pixels
Height : 1 080 pixels
Display aspect ratio : 16:9
Frame rate : 23.976 fps
Chroma subsampling : 4:2:0
Bit depth : 8 bits
Scan type : Progressive
Compression mode : Lossy
Bits/(Pixel*Frame) : 0.404
Stream size : 13.7 GiB (88%)
Title : Undisputed II: Last Man Standing (2006) BDRemux 1080p by nextDred
Language : English
Default : No
Forced : No
Audio #1
ID : 2
Format : DTS
Format/Info : Digital Theater Systems
Format profile : MA / Core
Codec ID : A_DTS
Duration : 1h 37mn
Bit rate mode : Variable
Bit rate : 1 795 Kbps / 1 510 Kbps
Channel(s) : 6 channels
Channel positions : Front: L C R, Side: L R, LFE
Sampling rate : 48.0 KHz
Bit depth : 16 bits
Compression mode : Lossless / Lossy
Title : ENG
Language : English
Default : No
Forced : No
Audio #2
ID : 3
Format : AC-3
Format/Info : Audio Coding 3
Mode extension : CM (complete main)
Codec ID : A_AC3
Duration : 1h 37mn
Bit rate mode : Constant
Bit rate : 448 Kbps
Channel(s) : 6 channels
Channel positions : Front: L C R, Side: L R, LFE
Sampling rate : 48.0 KHz
Bit depth : 16 bits
Compression mode : Lossy
Stream size : 313 MiB (2%)
Title : MVO
Language : Russian
Default : Yes
Forced : No
Menu
00:00:00.000 : en:00:00:00.000
00:12:48.893 : en:00:12:48.893
00:20:02.118 : en:00:20:02.118
00:26:09.067 : en:00:26:09.067
00:30:53.351 : en:00:30:53.351
00:39:56.936 : en:00:39:56.936
00:48:14.058 : en:00:48:14.058
00:52:31.648 : en:00:52:31.648
00:58:56.533 : en:00:58:56.533
01:03:05.907 : en:01:03:05.907
01:11:07.305 : en:01:11:07.305
01:15:51.464 : en:01:15:51.464
01:19:19.755 : en:01:19:19.755
01:21:45.567 : en:01:21:45.567
01:28:16.625 : en:01:28:16.625
01:34:01.219 : en:01:34:01.219

Скриншоты

[th]http://img.torrentsclub.org/di/6VND/2,2.png[/th] [th]http://img.torrentsclub.org/di/F68C/2,3.png[/th] [th]http://img.torrentsclub.org/di/LR9J/2,4.png[/th]
--Неоспоримый 3 / Undisputed III: Redemption BDRemux- Русское название: Неоспоримый 3
Оригинальное название: Undisputed III: Redemption
Год выпуска: 2010
Жанр: боевик, драма, криминал
Описание фильма:
Юрий Бойка - российский чемпион подпольных боев без правил, постепенно оправляющийся от полученной в последнем поединке травмы, решает вернуться на ринг. Победив в бою нынешнего чемпиона тюрьмы «Чёрные Холмы», его босс - Гага - решает отправить его на международный чемпионат тюремных поединков. Поврежденное колено дает о себе знать в каждом бою и беспокоит Бойку, но он готов пройти до конца, чтобы сразиться с колумбийским бойцом и доказать, что он неоспоримый.
Режиссер: Айзек Флорентайн / Isaac Florentine
Актеры: Скотт Эдкинс, Майкл Шеннон Дженкинс, Марк Иванир, Христо Шопов, Марко Зарор, Майкл Бэрал, Илрам Чои, Роберт Костанцо, Латиф Кроудер, Эстебан Куето
Продолжительность: 01:36:02
Перевод 1: Профессиональный (многоголосый закадровый) [R5]
Перевод 2: Авторский (одноголосый закадровый) |Д. Строев|
Язык субтитров: Русские, English

Видеокодек: VC-1
Битрейт видео: ~23.16 Mbps
Размер кадра: 1920x1080
Качество видео: BDRemux
Аудио:
Аудио #1: Russian: DTS-HD MA, 6ch, 48 kHz, 4243 kbps avg (DTS Core: 5.1 / 48 kHz / 1509 kbps) |Многоголосый закадровый, R5|
Аудио #2: Russian: AC3 , 6ch, 48 kHz, 448 kbps avg |Одноголосый закадровый, Д. Строев|
Аудио #3: English: DTS-HD MA, 6ch, 48 kHz, 4223 kbps avg (DTS Core: 5.1 / 48 kHz / 1509 kbps) |Оригинал|

MediaInfo

Формат : Matroska
Размер файла : 21,5 Гигабайт
Продолжительность : 1ч 36мин
Общий поток : 32,1 Мбит/сек
Фильм : Неоспоримый 3: Искупление
Дата кодирования : UTC 2011-02-12 16:16:55
Программа-кодировщик : mkvmerge v2.9.7 ('Tenderness') built on Jul 1 2009 18:43:35
Библиотека кодирования : libebml v0.7.7 + libmatroska v0.8.1
Видео
Идентификатор : 1
Формат : VC-1
Профайл формата : AP@L3
Идентификатор кодека : WVC1
Идентификатор кодека/Подсказка : Microsoft
Продолжительность : 1ч 36мин
Ширина : 1 920 пикс.
Высота : 1 080 пикс.
Соотношение кадра : 16/9
Частота кадров : 23,976 кадр/сек
Разрешение : 24 бит
Колориметрия : 4:2:0
Тип развёртки : Прогрессивная
Заголовок : Неоспоримый 3: Искупление
Язык : English
Аудио #1
Идентификатор : 2
Формат : DTS
Формат/Информация : Digital Theater Systems
Профайл формата : MA
Идентификатор кодека : A_DTS
Продолжительность : 1ч 36мин
Вид битрейта : Переменный
Канал(ы) : 6 канала(ов)
Расположение каналов : Front: L C R, Surround: L R, LFE
Частота : 48,0 КГц
Разрешение : 24 бит
Заголовок : DTS-HD - MVO (R5)
Язык : Russian
Аудио #2
Идентификатор : 3
Формат : AC-3
Формат/Информация : Audio Coding 3
Идентификатор кодека : A_AC3
Продолжительность : 1ч 36мин
Вид битрейта : Постоянный
Битрейт : 448 Кбит/сек
Канал(ы) : 6 канала(ов)
Расположение каналов : Front: L C R, Surround: L R, LFE
Частота : 48,0 КГц
Заголовок : AC3 - AVO (Строев)
Язык : Russian
Аудио #3
Идентификатор : 4
Формат : DTS
Формат/Информация : Digital Theater Systems
Профайл формата : MA
Идентификатор кодека : A_DTS
Продолжительность : 1ч 36мин
Вид битрейта : Переменный
Канал(ы) : 6 канала(ов)
Расположение каналов : Front: L C R, Surround: L R, LFE
Частота : 48,0 КГц
Разрешение : 24 бит
Заголовок : DTS-HD
Язык : English
Текст #1
Идентификатор : 5
Формат : UTF-8
Идентификатор кодека : S_TEXT/UTF8
Идентификатор кодека/Информация : UTF-8 Plain Text
Язык : Russian
Текст #2
Идентификатор : 6
Формат : UTF-8
Идентификатор кодека : S_TEXT/UTF8
Идентификатор кодека/Информация : UTF-8 Plain Text
Язык : English
Разделы
Язык : English
1 : 00:00:00.000 - 00:00:00.000
2 : 00:11:31.232 - 00:11:31.232
3 : 00:19:26.457 - 00:19:26.457
4 : 00:28:14.276 - 00:28:14.276
5 : 00:40:06.696 - 00:40:06.696
6 : 00:49:29.341 - 00:49:29.341
7 : 01:01:16.464 - 01:01:16.464
8 : 01:12:28.844 - 01:12:28.844
9 : 01:25:33.337 - 01:25:33.337
10 : 01:32:27.083 - 01:32:27.083

Скриншоты

[th]http://img.torrentsclub.org/di/NG8Q/3,1.png[/th] [th]http://img.torrentsclub.org/di/590E/3,2.png[/th] [th]http://img.torrentsclub.org/di/15YS/3,3.png[/th]

[Цитировать]

кто знает когда уже 4 часть неоспоримого выйдет

[Цитировать]



Показать сообщения:    

Текущее время: 08-Дек 12:50

Часовой пояс: UTC + 3


Вы не можете начинать темы
Вы не можете отвечать на сообщения
Вы не можете редактировать свои сообщения
Вы не можете удалять свои сообщения
Вы не можете голосовать в опросах
Вы не можете прикреплять файлы к сообщениям
Вы не можете скачивать файлы

!ВНИМАНИЕ!
Сайт не предоставляет электронные версии произведений, а занимается лишь коллекционированием и каталогизацией ссылок, присылаемых и публикуемых на форуме нашими читателями. Если вы являетесь правообладателем какого-либо представленного материала и не желаете, чтобы ссылка на него находилась в нашем каталоге, свяжитесь с нами, и мы незамедлительно удалим ее. Файлы для обмена на трекере предоставлены пользователями сайта, и администрация не несет ответственности за их содержание. Просьба не заливать файлы, защищенные авторскими правами, а также файлы нелегального содержания!