[ Сегодня идет свободное скачивание без начисления Download ]


Статистика раздачи
Нет
 
   
 
Top  
 
 
-Мачете убивает / Machete Kills (2013) HDRip«Наученный убивать. Брошенный умирать. Вернулся спасти мир»- Год выпуска: 2013
Производство: США, Россия, 1821 Pictures, AR Films, Overnight Films, Aldamisa Entertainment
Жанр: Боевик, Комедия
Перевод: Дублированный (лицензия)
Субтитры: Отсутствуют
Дата мировой премьеры: 19 сентября 2013
Дата российской премьеры: 24 октября 2013, «A Company», «Двадцатый Век Фокс СНГ»
Дата выхода DVD / Blu-Ray релиза: 10 декабря 2013, «Lizard Cinema Trade»
Режиссер: Роберт Родригес
Продюсер: Роберт Родригес, Рик Шварц, Сергей Беспалов
Актеры: Дэнни Трэхо, Джессика Альба, Мишель Родригес, Эмбер Херд, Ванесса Хадженс, София Вергара, Демиан Бичир, Мел Гибсон, Чарли Шин, Куба Гудинг-мл., Алекса Вега, Леди Гага, Уильям Сэдлер, Эдвард Джеймс Олмос, Антонио Бандерас
Описание фильма:
Правительство США вербует Мачете для миссии, которую не под силу выполнить простому смертному. Мачете прорывается в Мексику, чтобы схватить безумного лидера карательного отряда и эксцентричного миллиардера, торгующего оружием, который, в свою очередь, лелеет мечту начать войну планетарного масштаба и запустить смертельно опасное оружие в космос. И только Мачете может предотвратить этот глобальный хаос.

Продолжительность: 01:47:59
Качество видео: HDRip
Видеокодек: Xvid
Битрейт видео: ~768 Kbit/s
Размер кадра: 640 x 352
Аудиокодек: AC3 2.0
Битрейт аудио: 128 Kbit/s

MediaInfo

Общее
Полное имя : D:\Торренты\РЕЛИЗЫ\Мачете убивает.2013.HDRip.700Mb.avi
Формат : AVI
Формат/Информация : Audio Video Interleave
Размер файла : 700 Мбайт
Продолжительность : 1 ч. 47 м.
Общий поток : 906 Кбит/сек
Программа кодирования : VirtualDubMod 1.5.10.3 (build 2550/release)
Библиотека кодирования : VirtualDubMod build 2550/release
Видео
Идентификатор : 0
Формат : MPEG-4 Visual
Профиль формата : Advanced Simple@L5
Параметр BVOP формата : 2
Параметр QPel формата : Нет
Параметр GMC формата : Без точки перехода
Параметр матрицы формата : Выборочная
Идентификатор кодека : XVID
Идентификатор кодека/Подсказка : XviD
Продолжительность : 1 ч. 47 м.
Битрейт : 768 Кбит/сек
Ширина : 640 пикс.
Высота : 352 пикс.
Соотношение сторон : 16:9
Частота кадров : 24,000 кадр/сек
Цветовое пространство : YUV
Подвыборка цветности : 4:2:0
Битовая глубина : 8 бит
Тип развёртки : Прогрессивная
Метод сжатия : С потерями
Бит/(Пиксели*Кадры) : 0.142
Размер потока : 594 Мбайт (85%)
Библиотека кодирования : XviD 1.2.1 (UTC 2008-12-04)
Аудио
Идентификатор : 1
Формат : AC-3
Формат/Информация : Audio Coding 3
Расширение режима : CM (complete main)
Идентификатор кодека : 2000
Продолжительность : 1 ч. 47 м.
Вид битрейта : Постоянный
Битрейт : 128 Кбит/сек
Каналы : 2 канала
Расположение каналов : Front: L R
Частота : 48,0 КГц
Битовая глубина : 16 бит
Метод сжатия : С потерями
Размер потока : 98,9 Мбайт (14%)
Выравнивание : Разделение по промежуткам
Продолжительность промежутка : 42 мс. (1,00 видеокадр)
Время предзагрузки промежутка : 500 ms
Скриншоты:
[th]http://img.torrentsclub.org/di/LUKJ/5e25862fd4f610d...c67a016.jpg[/th] [th]http://img.torrentsclub.org/di/GV84/39ed5d8312dbdcc...740eaf4.jpg[/th] [th]http://img.torrentsclub.org/di/0Y5P/47e427d9325055a...fd5e473.jpg[/th] [th]http://img.torrentsclub.org/di/2TBJ/570e305fe602dfd...485a5b8.jpg[/th] [th]http://img.torrentsclub.org/di/QW9C/6375e73f146bdee...c094156.jpg[/th]
Время раздачи: 24/7 по возможности

[Цитировать]

Топик был перенесен из форума Новинки кинопроката в форум Боевик
Henkok



Показать сообщения:    

Текущее время: 08-Дек 09:06

Часовой пояс: UTC + 3


Вы не можете начинать темы
Вы не можете отвечать на сообщения
Вы не можете редактировать свои сообщения
Вы не можете удалять свои сообщения
Вы не можете голосовать в опросах
Вы не можете прикреплять файлы к сообщениям
Вы не можете скачивать файлы

!ВНИМАНИЕ!
Сайт не предоставляет электронные версии произведений, а занимается лишь коллекционированием и каталогизацией ссылок, присылаемых и публикуемых на форуме нашими читателями. Если вы являетесь правообладателем какого-либо представленного материала и не желаете, чтобы ссылка на него находилась в нашем каталоге, свяжитесь с нами, и мы незамедлительно удалим ее. Файлы для обмена на трекере предоставлены пользователями сайта, и администрация не несет ответственности за их содержание. Просьба не заливать файлы, защищенные авторскими правами, а также файлы нелегального содержания!