[ Сегодня идет свободное скачивание без начисления Download ]


Статистика раздачи
Нет
 
   
 
Top  
 
 
-Три мушкетера - Год выпуска: 2013
Страна: Россия
Производство: ООО КиноПоиск
Жанр: Приключения
Режиссёр: Сергей Жигунов
В ролях: Риналь Мухаметов, Юрий Чурсин, Алексей Макаров, Павел Баршак, Филипп Янковский, Мария Миронова, Константин Лавроненко, Василий Лановой, Александр Лыков, Алексей Воробьёв
Перевод: Не требуется
Субтитры: Нет
Описание: «Три мушкетера» — это история о юном гасконце Д’Артаньяне, который, не познав всех радостей любви, оказывается втянут в водоворот политических интриг королевского двора Людовика XIII. В роте королевских мушкетеров Де Тревиля он находит себе верных друзей Атоса, Портоса и Арамиса. Мушкетеры настолько поражены кипучей энергией гасконца и его умением находить неприятности, что принимают самое живое участие не только в многочисленных стычках с гвардейцами кардинала, но и в личной судьбе Д’Артаньяна.
Благодаря друзьям Д’Артаньян находит свою первую любовь — Констанцию Бонасье и ввязывается в опаснейшую историю с подвесками Королевы. Тонкий и дальновидный политик кардинал Ришелье и его подручные Рошфор и Миледи обретают в лице Д’Артаньяна опаснейшего врага. Во имя любви он готов на самые отчаянные подвиги. На пути Д’Артаньяна немало опасных соблазнов и искушений. Но он их все преодолеет, не предав своей дружбы и любви!
Сэмпл
Качество: DVDRip
Продолжительность: 01:58:34
Формат: AVI
Видео кодек: XviD
Аудио кодек: AС3
Видео: 720x400 (1.80:1), 25 fps, XviD build 73 ~1386 kbps avg, 0.192 bit/pixel
Аудио: 48 kHz, AC3 Dolby Digital, 3/2 (L,C,R,l,r) + LFE ch, ~448 kbps
Дата премьеры (мир): 14 ноября 2013
Дата премьеры (РФ): 14 ноября 2013, «Каропрокат»

MI

General
Complete name : /etc/seedbox/home/kino1/data/Tri.mushketera.2013.O.DVDRip.1400Mb.avi
Format : AVI
Format/Info : Audio Video Interleave
File size : 1.46 GiB
Duration : 1h 58mn
Overall bit rate : 1 761 Kbps
Writing application : VirtualDubMod 1.5.10.3 | www.virtualdub-fr.org || (build 2550/release)
Writing library : VirtualDubMod build 2550/release
Video
ID : 0
Format : MPEG-4 Visual
Format profile : Advanced Simple@L5
Format settings, BVOP : 1
Format settings, QPel : No
Format settings, GMC : No warppoints
Format settings, Matrix : Default (MPEG)
Codec ID : XVID
Codec ID/Hint : XviD
Duration : 1h 58mn
Source duration : 1h 28mn
Bit rate : 1 386 Kbps
Width : 720 pixels
Height : 400 pixels
Display aspect ratio : 16:9
Frame rate : 25.000 fps
Color space : YUV
Chroma subsampling : 4:2:0
Bit depth : 8 bits
Scan type : Progressive
Compression mode : Lossy
Bits/(Pixel*Frame) : 0.192
Stream size : 872 MiB (58%)
Writing library : XviD 73
Audio
ID : 1
Format : AC-3
Format/Info : Audio Coding 3
Mode extension : CM (complete main)
Format settings, Endianness : Big
Codec ID : 2000
Duration : 1h 58mn
Source duration : 1h 28mn
Bit rate mode : Constant
Bit rate : 448 Kbps
Channel count : 6 channels
Channel positions : Front: L C R, Side: L R, LFE
Sampling rate : 48.0 KHz
Bit depth : 16 bits
Compression mode : Lossy
Stream size : 282 MiB (19%)
Alignment : Split accross interleaves
Interleave, duration : 40 ms (1.00 video frame)
Interleave, preload duration : 500 ms

[Цитировать]

Топик был перенесен из форума Новинки кинопроката в форум Приключения / Исторический
Henkok



Показать сообщения:    

Текущее время: 08-Дек 10:55

Часовой пояс: UTC + 3


Вы не можете начинать темы
Вы не можете отвечать на сообщения
Вы не можете редактировать свои сообщения
Вы не можете удалять свои сообщения
Вы не можете голосовать в опросах
Вы не можете прикреплять файлы к сообщениям
Вы не можете скачивать файлы

!ВНИМАНИЕ!
Сайт не предоставляет электронные версии произведений, а занимается лишь коллекционированием и каталогизацией ссылок, присылаемых и публикуемых на форуме нашими читателями. Если вы являетесь правообладателем какого-либо представленного материала и не желаете, чтобы ссылка на него находилась в нашем каталоге, свяжитесь с нами, и мы незамедлительно удалим ее. Файлы для обмена на трекере предоставлены пользователями сайта, и администрация не несет ответственности за их содержание. Просьба не заливать файлы, защищенные авторскими правами, а также файлы нелегального содержания!