[ Сегодня идет свободное скачивание без начисления Download ]


Статистика раздачи
Нет
 
   
 
Top  
 
 
-Открытая могила / Open Grave (2013) BDRip- Год выпуска: 2013
Производство: США
Жанр: Ужасы
Перевод: Одноголосый закадровый, любительский (Xixidok)
Субтитры: Отсутствуют
Дата мировой премьеры: 14 августа 2013
Режиссер: Гонсало Лопес-Гальего
Продюсер: Аарон Л. Гинсбург, Уильям Грин, Майкл Б. Вундермэн
Актеры: Шарлто Копли, Джозеф Морган, Томас Кречман, Эрин Ричардс, Джози Хо, Макс Роттсли, Кати Домби, Ева Ботос, Марта Сабо, М. Фрайкс
Описание фильма:
История человека, который однажды обнаруживает себя в яме в окружении трупов. При этом он ничего не помнит, не знает, кто он, откуда и как сюда попал. С помощью товарищей по несчастью, тоже потерявших память, он должен вычислить убийцу, который, по всей вероятности, находится среди них.

Продолжительность: 01:42:12
Качество видео: BDRip
Видеокодек: Xvid
Битрейт видео: ~1270 Kbit/s
Размер кадра: 720 x 304
Аудиокодек: МР3, 2.0
Битрейт аудио: 192 Kbit/s

MediaInfo

Общее
Полное имя : D:\Торренты\Открытая могила.2013.BDRip.avi
Формат : AVI
Формат/Информация : Audio Video Interleave
Размер файла : 1,05 Гбайт
Продолжительность : 1 ч. 42 м.
Общий поток : 1472 Кбит/сек
Программа кодирования : VirtualDubMod 1.5.10.3 (build 2550/release)
Библиотека кодирования : VirtualDubMod build 2550/release
Видео
Идентификатор : 0
Формат : MPEG-4 Visual
Профиль формата : Advanced [email protected]
Параметр BVOP формата : 2
Параметр QPel формата : Нет
Параметр GMC формата : Без точки перехода
Параметр матрицы формата : Default (H.263)
Режим смешивания : Сжатый битовый поток
Идентификатор кодека : XVID
Идентификатор кодека/Подсказка : XviD
Продолжительность : 1 ч. 42 м.
Битрейт : 1270 Кбит/сек
Ширина : 720 пикс.
Высота : 304 пикс.
Соотношение сторон : 2,35:1
Частота кадров : 23,976 кадр/сек
Цветовое пространство : YUV
Подвыборка цветности : 4:2:0
Битовая глубина : 8 бит
Тип развёртки : Прогрессивная
Метод сжатия : С потерями
Бит/(Пиксели*Кадры) : 0.242
Размер потока : 928 Мбайт (86%)
Библиотека кодирования : XviD 64
Аудио
Идентификатор : 1
Формат : MPEG Audio
Версия формата : Version 1
Профиль формата : Layer 3
Идентификатор кодека : 55
Идентификатор кодека/Подсказка : MP3
Продолжительность : 1 ч. 42 м.
Вид битрейта : Постоянный
Битрейт : 192 Кбит/сек
Каналы : 2 канала
Частота : 44,1 КГц
Метод сжатия : С потерями
Размер потока : 140 Мбайт (13%)
Выравнивание : Разделение по промежуткам
Продолжительность промежутка : 42 мс. (1,00 видеокадр)
Время предзагрузки промежутка : 500 ms
Скриншоты:
[th]http://img.torrentsclub.org/di/UW3L/157876cb2ccdc4d...6140888.jpg[/th] [th]http://img.torrentsclub.org/di/OGA5/a3943b5565e55e5...fccc540.jpg[/th] [th]http://img.torrentsclub.org/di/ECXH/c8e622566770523...dc69e77.jpg[/th] [th]http://img.torrentsclub.org/di/B44T/c2494e28cd5234f...d784f0e.jpg[/th] [th]http://img.torrentsclub.org/di/UQIG/d7589fdabb5d158...ce14354.jpg[/th] [th]http://img.torrentsclub.org/di/FI3T/e2d552a10eb088b...603e73b.jpg[/th]
Время раздачи: 24/7 по возможности

[Цитировать]



Показать сообщения:    

Текущее время: 04-Дек 23:20

Часовой пояс: UTC + 3


Вы не можете начинать темы
Вы не можете отвечать на сообщения
Вы не можете редактировать свои сообщения
Вы не можете удалять свои сообщения
Вы не можете голосовать в опросах
Вы не можете прикреплять файлы к сообщениям
Вы не можете скачивать файлы

!ВНИМАНИЕ!
Сайт не предоставляет электронные версии произведений, а занимается лишь коллекционированием и каталогизацией ссылок, присылаемых и публикуемых на форуме нашими читателями. Если вы являетесь правообладателем какого-либо представленного материала и не желаете, чтобы ссылка на него находилась в нашем каталоге, свяжитесь с нами, и мы незамедлительно удалим ее. Файлы для обмена на трекере предоставлены пользователями сайта, и администрация не несет ответственности за их содержание. Просьба не заливать файлы, защищенные авторскими правами, а также файлы нелегального содержания!