[ Сегодня идет свободное скачивание без начисления Download ]


Статистика раздачи
Нет
 
   
 
Top  
 
 
-Убойный уикенд / Cottage Country (2013) BDRip
«They aren't going to let a little blood spoil their perfect wedding»
- Год выпуска: 2013
Производство: Канада | Whizbang Films
Жанр: Комедия, Криминал, Триллер
Перевод: Дублированный (чистый звук) + одноголосый любительский (den904)
Субтитры: Вшитые отключаемые
Язык субтитров: Английский, Датский, Финский, Норвежский, Шведский-Дата мировой премьеры: 3 июля 2013 (Швеция)
Дата российской премьеры: 10 октября 2013, «Наше Кино»
Дата выхода DVD релиза: 21 ноября 2013, «CD Land»-Режиссер: Питер Веллингтон-Продюсер: Фрэнк Сиракуза, Пол Гросс-Актеры: Тайлер Лабайн, Малин Акерман, Люси Панч, Дэн Петронижевич, Бенджамин Эйрс, Кеннет Уэлш, Нэнси Битти, Сабрина Грдевич, Джим Аннан, Джонатан Кромби, Эрл Паско, Билли Тернбулл, Джейсон К. Пол ...-Описание фильма:
Тодд Чиповски собирается провести незабываемый уикенд в загородном коттедже, который он арендовал специально для того, чтобы сделать предложение своей возлюбленной Кэмми Райан. Но торжественное событие и чудесный отдых подпортило появление братца Тодда Сэлинджера и его подружки Маши. Однако выходные всё равно становятся для героев незабываемыми — особенно после того, как Тодд в порыве ярости случайно убивает своего брата топором. -
Продолжительность: 01:31:22
Качество видео: BDRip 1080p [PHD]
Видеокодек: MPEG-4 AVC/H.264
Битрейт видео: ~ 11,3 Мбит/сек
Размер кадра: 1920 x 1040 (1.846) at 24.000 fps : 0.237 Bits/Pixel
Аудио #1: Dolby Digital Audio 192 kbps / 2.0 / 48 kHz / DN -4dB / 16-bit [Русский, Дубляж]
Аудио #2: Dolby Digital Audio 448 kbps / 5.1 / 48 kHz / DN -4dB / 16-bit [Русский, VO den904]
Аудио #3: DTS Core: 5.1 / 48 kHz / 1509 kbps / 16-bit) [Английский]
Дополнительно: Сохранены оригинальные чаптеры как на Blu-ray

Трейлер / Ролик

MediaInfo:

Уникальный идентификатор                 : 236089582765435484828961932704560813660 (0xB19D331F93D5A659A6AE896E6A1D965C)
Полное имя                               : H:Uboynyy.uikend.2013.BDRip.1080p.mkv
Формат                                   : Matroska
Версия формата                           : Version 2
Размер файла                             : 8,78 Гбайт
Продолжительность                        : 1 ч. 31 м.
Общий поток                              : 13,8 Мбит/сек
Название фильма                          : cottage.country.2013.1080p.bluray.dts.x264-publichd
Дата кодирования                         : UTC 2013-12-12 00:49:43
Программа кодирования                    : mkvmerge v2.9.9 ('Tutu') built on Nov 25 2009 21:13:32
Библиотека кодирования                   : libebml v0.7.9 + libmatroska v0.8.1
Видео
Идентификатор                            : 1
Формат                                   : AVC
Формат/Информация                        : Advanced Video Codec
Профиль формата                          : [url=mailto:[email protected]][email protected][/url]
Параметр CABAC формата                   : Да
Параметр ReFrames формата                : 4 кадра
Идентификатор кодека                     : V_MPEG4/ISO/AVC
Продолжительность                        : 1 ч. 31 м.
Битрейт                                  : 11,3 Мбит/сек
Ширина                                   : 1920 пикселей
Высота                                   : 1040 пикселей
Соотношение сторон                       : 1,85:1
Режим частоты кадров                     : Постоянный
Частота кадров                           : 24,000 кадра/сек
Цветовое пространство                    : YUV
Субдискретизация насыщенности            : 4:2:0
Битовая глубина                          : 8 бит
Тип развёртки                            : Прогрессивная
Бит/(Пиксели*Кадры)                      : 0.237
Размер потока                            : 7,23 Гбайт (82%)
Заголовок                                : -=Release for NNM-CLUB.RU=-
Библиотека кодирования                   : x264 core 130 r2273 b3065e6
Настройки программы                      : cabac=1 / ref=4 / deblock=1:-3:-3 / analyse=0x3:0x113 / me=umh / subme=10 / psy=1 / psy_rd=1.00:0.00 / mixed_ref=1 / me_range=32 / chroma_me=1 / trellis=2 / 8x8dct=1 / cqm=0 / deadzone=21,11 / fast_pskip=1 / chroma_qp_offset=-2 / threads=36 / lookahead_threads=6 / sliced_threads=0 / nr=0 / decimate=1 / interlaced=0 / bluray_compat=0 / constrained_intra=0 / bframes=8 / b_pyramid=2 / b_adapt=2 / b_bias=0 / direct=3 / weightb=1 / open_gop=0 / weightp=2 / keyint=240 / keyint_min=24 / scenecut=40 / intra_refresh=0 / rc_lookahead=80 / rc=crf / mbtree=1 / crf=18.7 / qcomp=0.80 / qpmin=0 / qpmax=69 / qpstep=4 / vbv_maxrate=50000 / vbv_bufsize=50000 / crf_max=0.0 / nal_hrd=none / ip_ratio=1.40 / aq=2:0.85
Язык                                     : English
Default                                  : Нет
Forced                                   : Нет
Аудио #1
Идентификатор                            : 2
Формат                                   : AC-3
Формат/Информация                        : Audio Coding 3
Расширение режима                        : CM (complete main)
Параметр Endianness формата              : Big
Идентификатор кодека                     : A_AC3
Продолжительность                        : 1 ч. 31 м.
Вид битрейта                             : Постоянный
Битрейт                                  : 192 Кбит/сек
Каналы                                   : 2 канала
Расположение каналов                     : Front: L R
Частота                                  : 48,0 КГц
Битовая глубина                          : 16 бит
Метод сжатия                             : С потерями
Размер потока                            : 125 Мбайт (1%)
Заголовок                                : AC3.192.Kbps (2ch) Russian (Дубляж Line)
Язык                                     : Russian
Default                                  : Да
Forced                                   : Нет
Аудио #2
Идентификатор                            : 3
Формат                                   : AC-3
Формат/Информация                        : Audio Coding 3
Расширение режима                        : CM (complete main)
Параметр Endianness формата              : Big
Идентификатор кодека                     : A_AC3
Продолжительность                        : 1 ч. 31 м.
Вид битрейта                             : Постоянный
Битрейт                                  : 448 Кбит/сек
Каналы                                   : 6 каналов
Расположение каналов                     : Front: L C R, Side: L R, LFE
Частота                                  : 48,0 КГц
Битовая глубина                          : 16 бит
Метод сжатия                             : С потерями
Размер потока                            : 293 Мбайт (3%)
Заголовок                                : AC3.448.Kbps (6ch) Russian [den904]
Язык                                     : Russian
Default                                  : Нет
Forced                                   : Нет
Аудио #3
Идентификатор                            : 4
Формат                                   : DTS
Формат/Информация                        : Digital Theater Systems
Режим                                    : 16
Параметр Endianness формата              : Big
Идентификатор кодека                     : A_DTS
Продолжительность                        : 1 ч. 31 м.
Вид битрейта                             : Постоянный
Битрейт                                  : 1509 Кбит/сек
Каналы                                   : 6 каналов
Расположение каналов                     : Front: L C R, Side: L R, LFE
Частота                                  : 48,0 КГц
Битовая глубина                          : 24 бит
Метод сжатия                             : С потерями
Задержка видео                           : 11 мс.
Размер потока                            : 986 Мбайт (11%)
Заголовок                                : DTS.1509.Kbps (6ch) English
Язык                                     : English
Default                                  : Нет
Forced                                   : Нет
Текст #1
Идентификатор                            : 5
Формат                                   : UTF-8
Идентификатор кодека                     : S_TEXT/UTF8
Идентификатор кодека/Информация          : UTF-8 Plain Text
Заголовок                                : English (Full)
Язык                                     : English
Default                                  : Нет
Forced                                   : Нет
Текст #2
Идентификатор                            : 6
Формат                                   : UTF-8
Идентификатор кодека                     : S_TEXT/UTF8
Идентификатор кодека/Информация          : UTF-8 Plain Text
Заголовок                                : Danish (Full)
Язык                                     : Danish
Default                                  : Нет
Forced                                   : Нет
Текст #3
Идентификатор                            : 7
Формат                                   : UTF-8
Идентификатор кодека                     : S_TEXT/UTF8
Идентификатор кодека/Информация          : UTF-8 Plain Text
Заголовок                                : Finnish (Full)
Язык                                     : Finnish
Default                                  : Нет
Forced                                   : Нет
Текст #4
Идентификатор                            : 8
Формат                                   : UTF-8
Идентификатор кодека                     : S_TEXT/UTF8
Идентификатор кодека/Информация          : UTF-8 Plain Text
Заголовок                                : Norwegian (Full)
Язык                                     : Norwegian
Default                                  : Нет
Forced                                   : Нет
Текст #5
Идентификатор                            : 9
Формат                                   : UTF-8
Идентификатор кодека                     : S_TEXT/UTF8
Идентификатор кодека/Информация          : UTF-8 Plain Text
Заголовок                                : Swedish (Full)
Язык                                     : Swedish
Default                                  : Нет
Forced                                   : Нет
Меню
00:00:00.000                             : en:00:00:00.000
00:01:55.500                             : en:00:01:55.500
00:10:31.500                             : en:00:10:31.500
00:18:10.500                             : en:00:18:10.500
00:29:34.000                             : en:00:29:34.000
00:37:56.000                             : en:00:37:56.000
00:48:55.500                             : en:00:48:55.500
01:00:25.000                             : en:01:00:25.000
01:08:17.000                             : en:01:08:17.000
01:18:36.000                             : en:01:18:36.000
01:27:52.000                             : en:01:27:52.000
Скриншоты:

[th]http://img.torrentsclub.org/di/LYGD/0ec1faedf017168...efef380.png[/th] [th]http://img.torrentsclub.org/di/7R7V/3aa34df766571f0...a21d5d7.png[/th] [th]http://img.torrentsclub.org/di/QXOJ/5f4b57b5adb300b...6c0fae4.png[/th]

Время раздачи: 24/7 (до 10 скачавших)

[Цитировать]



Показать сообщения:    

Текущее время: 04-Дек 03:00

Часовой пояс: UTC + 3


Вы не можете начинать темы
Вы не можете отвечать на сообщения
Вы не можете редактировать свои сообщения
Вы не можете удалять свои сообщения
Вы не можете голосовать в опросах
Вы не можете прикреплять файлы к сообщениям
Вы не можете скачивать файлы

!ВНИМАНИЕ!
Сайт не предоставляет электронные версии произведений, а занимается лишь коллекционированием и каталогизацией ссылок, присылаемых и публикуемых на форуме нашими читателями. Если вы являетесь правообладателем какого-либо представленного материала и не желаете, чтобы ссылка на него находилась в нашем каталоге, свяжитесь с нами, и мы незамедлительно удалим ее. Файлы для обмена на трекере предоставлены пользователями сайта, и администрация не несет ответственности за их содержание. Просьба не заливать файлы, защищенные авторскими правами, а также файлы нелегального содержания!