[ Сегодня идет свободное скачивание без начисления Download ]


Статистика раздачи
Скачал: [ 1 ]
 
   
 
Top  
 
 
-[sh]МОЛОДЁЖКА
Сезон 1, Эпизод 01 - 40 (из 40)[/sh]
- [sh]«Наша игра - хоккей. Наша команда - 'Медведи'. Наша цель - 'Молодежка'!»[/sh]
Год выпуска: 2013
Страна: Россия
Производство: ООО Арт Пикчерс Вижн при поддержке Континентальной Хоккейной Лиги
Жанр: Драма, спорт
Режиссёр: Сергей Арланов
В ролях: Серафима Низовская, Владимир Зайцев, Сергей Габриэлян, Денис Никифоров, Валентина Ананьина, Сергей Комаров (II), Михаил Жигалов, Фёдор Бондарчук, Анатолий Лобоцкий, Ксения Лаврова-Глинка, Макар Запорожский, Александр Соколовский, Влад Канопка, Илья Коробко, Игорь Огурцов, Анна Михайловская, Иван Жвакин, Мария Иващенко, Николай Добрынин, Игорь Арташонов, Андрей Новиков (IV), Виктория Таранец, Ольга Стрелецкая, Андрей Харыбин, Екатерина Молоховская, Нина Есина, Егор Федотов, Юлия Маргулис, Иван Дубровский, Владимир Чуприков, Вячеслав Фетисов, Варвара Бородина, Анжелика Аристова, Ирина Крохина, Иван Литвинов, Александра Верхошанская, Артур Казберов, Алексей Булатов, Федор Румянцев, Дмитрий Попов, Юрий Соколов (V), Егор Вадов, Дмитрий Родонов
Перевод: Не требуется
Субтитры: Отсутствуют
«Медведи» никогда не были лидерами своей лиги. Но теперь все будет по-другому — за команду берется новый тренер Сергей Макеев. Когда-то он блеснул в НХЛ, но после травмы завершил карьеру игрока. Перед новоиспеченным тренером стоит невыполнимая задача — выиграть чемпионат и превратить команду любителей в настоящих профи. Но вот только как это сделать, ведь у его игроков в их 15-17 лет есть еще так много интересных дел. Да и в клубе не все рады приходу слишком активного новичка…



Качество: SATRip
Продолжительность: 40 x ~00:47:01
Формат: AVI
Видео кодек: XviD
Аудио кодек: MPEG Layer 3
Свойства видео: 720x400 (16:9), 25 fps, XviD, ~1500 kbps avg, 0.208 bit/pixel
Свойства аудио: 48 kHz, MPEG Layer 3, 2 ch, ~128.00 kbps avg

Молодежка


Сергей Макеев (Денис Никифоров)

Дмитрий Щукин (Макар Запорожский), Егор Щукин (Александр Соколовский), Андрей Кисляк (Влад Канопка)

Александр Костров (Иван Жвакин),Михаил Понамарев (Илья Коробко), Антон Антипов (Иван Мулин)

Семен Бакин (Игорь Огурцов), Вадим Назаров (Иван Дубровский)

Мария Касаткина (Юлия Маргулис), Яна Самойлова (Анна Михайловская), Алина Морозова (Мария Иващенко)

MI

Общее
Полное имя : Молодёжка_08.avi
Формат : AVI
Формат/Информация : Audio Video Interleave
Размер файла : 542 Мбайт
Продолжительность : 46 м.
Общий поток : 1639 Кбит/сек
Библиотека кодирования : VirtualDub build 32706/release
Видео
Идентификатор : 0
Формат : MPEG-4 Visual
Профиль формата : Advanced Simple@L5
Параметр BVOP формата : 2
Параметр QPel формата : Нет
Параметр GMC формата : Без точки перехода
Параметр матрицы формата : Default (MPEG)
Идентификатор кодека : XVID
Идентификатор кодека/Подсказка : XviD
Продолжительность : 46 м.
Битрейт : 1501 Кбит/сек
Ширина : 720 пикселей
Высота : 400 пикселей
Соотношение сторон : 16:9
Частота кадров : 25,000 кадров/сек
Цветовое пространство : YUV
Субдискретизация насыщенности : 4:2:0
Битовая глубина : 8 бит
Тип развёртки : Прогрессивная
Метод сжатия : С потерями
Бит/(Пиксели*Кадры) : 0.208
Размер потока : 497 Мбайт (92%)
Библиотека кодирования : XviD 1.2.1 (UTC 2008-12-04)
Аудио
Идентификатор : 1
Формат : MPEG Audio
Версия формата : Version 1
Профиль формата : Layer 3
Режим : Joint stereo
Расширение режима : MS Stereo
Идентификатор кодека : 55
Идентификатор кодека/Подсказка : MP3
Продолжительность : 46 м.
Вид битрейта : Постоянный
Битрейт : 128 Кбит/сек
Каналы : 2 канала
Частота : 48,0 КГц
Метод сжатия : С потерями
Размер потока : 42,4 Мбайт (8%)
Выравнивание : Разделение по промежуткам
Продолжительность промежутка : 40 мс. (1,00 видеокадр)
Время предзагрузки промежутка : 500 мс.

[Цитировать]

Топик был перенесен из форума Российские сериалы в форум Другие росс. сериалы
Причина переноса: Нужно в саму категорию заливать в данном случае в Другие росю сериалы
Morpheus



Показать сообщения:    

Текущее время: 21-Янв 01:13

Часовой пояс: UTC + 3


Вы не можете начинать темы
Вы не можете отвечать на сообщения
Вы не можете редактировать свои сообщения
Вы не можете удалять свои сообщения
Вы не можете голосовать в опросах
Вы не можете прикреплять файлы к сообщениям
Вы не можете скачивать файлы

!ВНИМАНИЕ!
Сайт не предоставляет электронные версии произведений, а занимается лишь коллекционированием и каталогизацией ссылок, присылаемых и публикуемых на форуме нашими читателями. Если вы являетесь правообладателем какого-либо представленного материала и не желаете, чтобы ссылка на него находилась в нашем каталоге, свяжитесь с нами, и мы незамедлительно удалим ее. Файлы для обмена на трекере предоставлены пользователями сайта, и администрация не несет ответственности за их содержание. Просьба не заливать файлы, защищенные авторскими правами, а также файлы нелегального содержания!