[ Сегодня идет свободное скачивание без начисления Download ]


Статистика раздачи
Нет
 
   
 
Top  
 
 
-[sh]Балабол
Сезон 1, эпизоды 01-16 (из 16)[/sh]
- Год выпуска: 2013
Страна: Россия
Производство: Юнайтед мультимедиа проджекс
Жанр: Детектив, комедия
Режиссёр: Владимир Мельник (II)
В ролях: Константин Юшкевич, Вадим Андреев, Мария Пирогова, Вадим Дорофеев, Инга Оболдина, Ирина Низина, Иван Агапов, Евгений Миллер, Маргарита Исаченко, Алексей Михайлов (II), Гоша Куценко, Александр Самойлов, Тимур Ефременков, Ольга Дибцева, Игорь Кистол, Сергей Неудачин, Олег Зима, Олег Чевелев, Константин Тополага, Игорь Старосельцев, Александр Числов, Борис Каморзин, Константин Адаев, Александр Наумов, Борис Миронов, Виктор Конухин, Сергей Граб, Андрей Лавров, Сергей Морин, Кирилл Грацинский, Оксана Сташенко, Евгений Куршинский, Сергей Плаксин, Влад Канопка, Карина Разумовская, Дмитрий Мазуров, Дмитрий Блажко
Перевод: Не требуется
Субтитры: Отсутствуют
Каждые две серии иронического детектива – отдельная история, в которой бравый провинциальный опер, «одинокий волк» с несерьезным именем Саня, распутывает безнадежные на взгляд его коллег преступления. Детективная составляющая – основа каждой истории, но внутри сюжета – столкновение характеров героев, их семейные дела, изменения, которые происходят с каждым из них по ходу действия. Зрители увидят, как мужает и превращается из наивного и избалованного юнца в настоящего профессионала стажер Карандышев по прозвищу Кузнечик; как в своих чувствах к бывшей жене разбирается сам Саня; как любовь и внимание отца пытается завоевать дочь опера Маша.



Качество: SATRip
Продолжительность: 16 x ~00:45:00
Формат: AVI
Видео кодек: XviD
Аудио кодек: MPEG Layer 3
Свойства видео: 720x384 (1.875), 25 fps, XviD , ~1470 kbps avg, 0.213 bit/pixell
Свойства аудио: 48 kHz, MPEG Layer 3, 2 ch, ~128.00 kbps avg

MI

General
Complete name : C:Балабол (2013)\Балабол.(04.seriya).2013.XviD.SATRip
Format : AVI
Format/Info : Audio Video Interleave
File size : 560 MiB
Duration : 46mn 51s
Overall bit rate : 1 672 Kbps
Writing application : VirtualDubMod 1.5.10.3 | www.virtualdub-fr.org || (build 2550/release)
Writing library : VirtualDubMod build 2550/release
Video
ID : 0
Format : MPEG-4 Visual
Format profile : Advanced Simple@L5
Format settings, BVOP : 1
Format settings, QPel : No
Format settings, GMC : No warppoints
Format settings, Matrix : Default (H.263)
Codec ID : XVID
Codec ID/Hint : XviD
Duration : 46mn 51s
Bit rate : 1 470 Kbps
Width : 720 pixels
Height : 384 pixels
Display aspect ratio : 1.875
Frame rate : 25.000 fps
Color space : YUV
Chroma subsampling : 4:2:0
Bit depth : 8 bits
Scan type : Progressive
Compression mode : Lossy
Bits/(Pixel*Frame) : 0.213
Stream size : 493 MiB (88%)
Writing library : XviD 1.2.1 (UTC 2008-12-04)
Audio
ID : 1
Format : MPEG Audio
Format version : Version 1
Format profile : Layer 3
Mode : Joint stereo
Mode extension : MS Stereo
Codec ID : 55
Codec ID/Hint : MP3
Duration : 46mn 51s
Bit rate mode : Constant
Bit rate : 192 Kbps
Channel(s) : 2 channels
Sampling rate : 48.0 KHz
Compression mode : Lossy
Stream size : 64.3 MiB (11%)
Alignment : Aligned on interleaves
Interleave, duration : 40 ms (1.00 video frame)
Interleave, preload duration : 504 ms
Writing library : LAME3.99r
Encoding settings : -m j -V 4 -q 2 -lowpass 18.6 -b 192

[Цитировать]

Топик был перенесен из форума Российские сериалы в форум Другие росс. сериалы
Причина переноса: Нужно в саму категорию заливать в данном случае в Другие росю сериалы
Morpheus

Не могу понять зачем она нужна. Есть категория российские сериалы разве этого не достаточно. И потом где логика Российские сериалы и Другие российские сериалы. Создайте раздел Российские сериалы и этого вполне достаточно. Пусть в ней будут подразделы все эти интерны и тд. К чему такая путаница. Для того чтоб релизерам указывать??? Так это не моя вина что я гружу (по вашему) не туда, а недоработка администрации. Извините конечно.

[Цитировать]



Показать сообщения:    

Текущее время: 10-Дек 15:50

Часовой пояс: UTC + 3


Вы не можете начинать темы
Вы не можете отвечать на сообщения
Вы не можете редактировать свои сообщения
Вы не можете удалять свои сообщения
Вы не можете голосовать в опросах
Вы не можете прикреплять файлы к сообщениям
Вы не можете скачивать файлы

!ВНИМАНИЕ!
Сайт не предоставляет электронные версии произведений, а занимается лишь коллекционированием и каталогизацией ссылок, присылаемых и публикуемых на форуме нашими читателями. Если вы являетесь правообладателем какого-либо представленного материала и не желаете, чтобы ссылка на него находилась в нашем каталоге, свяжитесь с нами, и мы незамедлительно удалим ее. Файлы для обмена на трекере предоставлены пользователями сайта, и администрация не несет ответственности за их содержание. Просьба не заливать файлы, защищенные авторскими правами, а также файлы нелегального содержания!