[ Сегодня идет свободное скачивание без начисления Download ]


Статистика раздачи
Нет
 
   
 
Top  
 
 
-Как украсть миллион / How to Steal a Million (1966) 1080i HDTV-ШЕДЕВРАЛЬНОЕ КИНО НА ВСЕ ВРЕМЕНА! Русское название: Как украсть миллион
Оригинальное название: How to Steal a Million
Выпущено: США
Год выпуска: 1966
Жанр: Комедия, Мелодрама, Криминал
Продолжительность: 01:58:18
Описание фильма:
Действие происходит в Париже. Молодая девушка, дочь миллионера, втайне промышляющего подделкой произведений искусства, и преступник, должны выкрасть с выставки изобразительного искусства в Лувре один из «шедевров» отца девушки, чтобы спасти его от разоблачения.
Качество: HDTV
Формат: AVC
Источник: Private Cap | USENET
Видео: 1920x1080 OAR at 25.000 fps, MPEG-4 AVC, ~8 160 Kbps
Аудио#1: Russian: 48 kHz, AC3, 2/0 (L,R), ~192.00 kbps avg (Советский дубляж)
Аудио#2: Russian: 48 kHz, AC3, 2/0 (L,R), ~192.00 kbps avg (Двухголосый закадровый)
Аудио#3: English: 48 kHz, AC3, 2/0 (L,R), ~384.00 kbps avg
Субтитры: нет

MediaInfo

General
ID : 1
Complete name : E:\Как украсть миллион\How.to.Steal.a.Million.1966.1080i.2xRus.Eng.[nnm-club.me].ts
Format : MPEG-TS
File size : 7.93 GiB
Duration : 1h 58mn
Overall bit rate : 9 594 Kbps
Maximum Overall bit rate : 35.5 Mbps
Video
ID : 4113 (0x1011)
Menu ID : 1 (0x1)
Format : AVC
Format/Info : Advanced Video Codec
Format profile : Main@L4.0
Format settings, CABAC : Yes
Format settings, ReFrames : 4 frames
Duration : 1h 58mn
Bit rate : 8 160 Kbps
Width : 1 920 pixels
Height : 1 080 pixels
Display aspect ratio : 16/9
Frame rate : 25.000 fps
Resolution : 24 bits
Colorimetry : 4:2:0
Scan type : Interlaced
Scan order : Top Field First
Bits/(Pixel*Frame) : 0.157
Stream size : 6.74 GiB (85%)
Audio #1
ID : 4352 (0x1100)
Menu ID : 1 (0x1)
Format : AC-3
Format/Info : Audio Coding 3
Duration : 1h 58mn
Bit rate mode : Constant
Bit rate : 192 Kbps
Channel(s) : 2 channels
Channel positions : L R
Sampling rate : 48.0 KHz
Video delay : 50ms
Stream size : 163 MiB (2%)
Language : Russian
Audio #2
ID : 4353 (0x1101)
Menu ID : 1 (0x1)
Format : AC-3
Format/Info : Audio Coding 3
Duration : 1h 58mn
Bit rate mode : Constant
Bit rate : 192 Kbps
Channel(s) : 2 channels
Channel positions : L R
Sampling rate : 48.0 KHz
Video delay : 50ms
Stream size : 163 MiB (2%)
Language : Russian
Audio #3
ID : 4354 (0x1102)
Menu ID : 1 (0x1)
Format : AC-3
Format/Info : Audio Coding 3
Duration : 1h 58mn
Bit rate mode : Constant
Bit rate : 384 Kbps
Channel(s) : 2 channels
Channel positions : L R
Sampling rate : 48.0 KHz
Video delay : 57ms
Stream size : 325 MiB (4%)
Language : English
Релиз группы: Скриншоты: Время раздачи: 24 часа

[Цитировать]



Показать сообщения:    

Текущее время: 25-Июн 16:40

Часовой пояс: UTC + 6


Вы не можете начинать темы
Вы не можете отвечать на сообщения
Вы не можете редактировать свои сообщения
Вы не можете удалять свои сообщения
Вы не можете голосовать в опросах
Вы не можете прикреплять файлы к сообщениям
Вы не можете скачивать файлы

!ВНИМАНИЕ!
Сайт не предоставляет электронные версии произведений, а занимается лишь коллекционированием и каталогизацией ссылок, присылаемых и публикуемых на форуме нашими читателями. Если вы являетесь правообладателем какого-либо представленного материала и не желаете, чтобы ссылка на него находилась в нашем каталоге, свяжитесь с нами, и мы незамедлительно удалим ее. Файлы для обмена на трекере предоставлены пользователями сайта, и администрация не несет ответственности за их содержание. Просьба не заливать файлы, защищенные авторскими правами, а также файлы нелегального содержания!