[ Сегодня идет свободное скачивание без начисления Download ]


Статистика раздачи
Нет
 
   
 
Top  
 
 
-Париж любой ценой / Paris а tout prix -
Год выпуска: 2013
Производство: Франция
Жанр: комедия-Перевод:Профессиональный (полное дублирование) [Line]
Субтитры: Отсутствуют-Дата мировой премьеры: 14 июня 2013-Режиссер: Реим Керичи / Reem Kherici
Сценарий: Реим Керичи / Reem Kherici, Филипп Лашо / Philippe Lachaux, Морган Спиллемекер / Morgan Spillemaecker
Продюсер: Эрик Альтмайер / Eric Altmeyer, Николас Альтмайер / Nicolas Altmeyer, Бенедикт Беллок / B?n?dicte Bellocq, Суад Ламрики / Souad Lamriki-Актеры: Реим Керичи, Сесиль Кассель, Тарек Будали, Филипп Лашо, Ширли Буске, Салим Кешьюш, Стефан Руссо, Жозефин Дрэй, Мохамед Бастауи, Фатима Наджи, Надя Кунда, Жюльен Аррути-Описание фильма:
Майя, восходящая звезда мира моды в Париже, собирается получить свою первую постоянную работу в знаменитом модном доме. Но как на зло обычная полицейская проверка выявляет, что срок её визы истёк, и её сразу депортируют в Марокко, в страну и семью, которую она хотела забыть. Майе остаётся сделать всё возможное и невозможное, чтобы попасть обратно в Париж.-Рейтинг:
-Продолжительность: 01:32:52-Качество: BDRip [1080p]
Видеокодек: AVC
Битрейт видео:: 8593 kbps, 24 fps, 0,233 bpp
Размер кадра:1920x800 (2.40:1)
Аудиокодек:AC3-DTS
Битрейт аудио: №1: русский 5.1 / 48 kHz / 384 kbps / 16 bit ||
Битрейт аудио: №2: французский 5.1 / 48 kHz / 1510 kbps / 24 bit-
-

MI

General
Unique ID                                : 242482420369114807948885685523609706361 (0xB66C6A5A1EF92451AE3226344C265F79)
Complete name                            : D:\Торенты\Parizh.luboj.cenoj.x264.BDRip..mkv
Format                                   : Matroska
Format version                           : Version 2
File size                                : 6.80 GiB
Duration                                 : 1h 32mn
Overall bit rate                         : 10.5 Mbps
Movie name                               : Parizh.ljuboj.cenoj.2013.x264.BDRip
Encoded date                             : UTC 2013-12-15 11:28:09
Writing application                      : mkvmerge v4.2.0 ('No Talking') сборка от Jul 28 2010 18:38:23
Writing library                          : libebml v1.0.0 + libmatroska v1.0.0
Video
ID                                       : 1
Format                                   : AVC
Format/Info                              : Advanced Video Codec
Format profile                           : [url=mailto:High@L4.1]High@L4.1[/url]
Format settings, CABAC                   : Yes
Format settings, ReFrames                : 5 frames
Muxing mode                              : Header stripping
Codec ID                                 : V_MPEG4/ISO/AVC
Duration                                 : 1h 32mn
Bit rate                                 : 8 593 Kbps
Width                                    : 1 920 pixels
Height                                   : 800 pixels
Display aspect ratio                     : 2.40:1
Frame rate                               : 24.000 fps
Color space                              : YUV
Chroma subsampling                       : 4:2:0
Bit depth                                : 8 bits
Scan type                                : Progressive
Bits/(Pixel*Frame)                       : 0.233
Stream size                              : 5.43 GiB (80%)
Title                                    : BDRip.1080p.
Writing library                          : x264 core 140 r2377 1ca7bb9
Encoding settings                        : cabac=1 / ref=5 / deblock=1:0:0 / analyse=0x3:0x133 / me=umh / subme=8 / psy=1 / psy_rd=1.00:0.00 / mixed_ref=1 / me_range=16 / chroma_me=1 / trellis=1 / 8x8dct=1 / cqm=0 / deadzone=21,11 / fast_pskip=0 / chroma_qp_offset=-2 / threads=24 / lookahead_threads=4 / sliced_threads=0 / nr=0 / decimate=1 / interlaced=0 / bluray_compat=0 / constrained_intra=0 / bframes=3 / b_pyramid=2 / b_adapt=1 / b_bias=0 / direct=1 / weightb=1 / open_gop=0 / weightp=2 / keyint=250 / keyint_min=24 / scenecut=40 / intra_refresh=0 / rc=2pass / mbtree=0 / bitrate=8593 / ratetol=1.0 / qcomp=0.60 / qpmin=0 / qpmax=69 / qpstep=4 / cplxblur=20.0 / qblur=0.5 / ip_ratio=1.40 / pb_ratio=1.30 / aq=1:1.00
Language                                 : French
Default                                  : Yes
Forced                                   : No
Audio #1
ID                                       : 2
Format                                   : AC-3
Format/Info                              : Audio Coding 3
Mode extension                           : CM (complete main)
Muxing mode                              : Header stripping
Codec ID                                 : A_AC3
Duration                                 : 1h 32mn
Bit rate mode                            : Constant
Bit rate                                 : 384 Kbps
Channel(s)                               : 6 channels
Channel positions                        : Front: L C R, Side: L R, LFE
Sampling rate                            : 48.0 KHz
Bit depth                                : 16 bits
Compression mode                         : Lossy
Stream size                              : 255 MiB (4%)
Title                                    : Russian AC3 384 kbps
Language                                 : Russian
Default                                  : No
Forced                                   : No
Audio #2
ID                                       : 3
Format                                   : DTS
Format/Info                              : Digital Theater Systems
Muxing mode                              : Header stripping
Codec ID                                 : A_DTS
Duration                                 : 1h 32mn
Bit rate mode                            : Constant
Bit rate                                 : 1 510 Kbps
Channel(s)                               : 6 channels
Channel positions                        : Front: L C R, Side: L R, LFE
Sampling rate                            : 48.0 KHz
Bit depth                                : 24 bits
Compression mode                         : Lossy
Delay relative to video                  : 11ms
Stream size                              : 1 003 MiB (14%)
Title                                    : French DTS 1509 kbps
Language                                 : French
Default                                  : Yes
Forced                                   : No
Menu
00:00:00.000                             : en:00:00:00.000
00:08:40.083                             : en:00:08:40.083
00:20:03.917                             : en:00:20:03.917
00:29:12.708                             : en:00:29:12.708
00:40:49.000                             : en:00:40:49.000
00:52:02.208                             : en:00:52:02.208
01:01:33.042                             : en:01:01:33.042
01:11:43.500                             : en:01:11:43.500
01:20:16.708                             : en:01:20:16.708
01:29:17.292                             : en:01:29:17.292
Скриншоты:



[Цитировать]



Показать сообщения:    

Текущее время: 08-Дек 10:48

Часовой пояс: UTC + 3


Вы не можете начинать темы
Вы не можете отвечать на сообщения
Вы не можете редактировать свои сообщения
Вы не можете удалять свои сообщения
Вы не можете голосовать в опросах
Вы не можете прикреплять файлы к сообщениям
Вы не можете скачивать файлы

!ВНИМАНИЕ!
Сайт не предоставляет электронные версии произведений, а занимается лишь коллекционированием и каталогизацией ссылок, присылаемых и публикуемых на форуме нашими читателями. Если вы являетесь правообладателем какого-либо представленного материала и не желаете, чтобы ссылка на него находилась в нашем каталоге, свяжитесь с нами, и мы незамедлительно удалим ее. Файлы для обмена на трекере предоставлены пользователями сайта, и администрация не несет ответственности за их содержание. Просьба не заливать файлы, защищенные авторскими правами, а также файлы нелегального содержания!