[ Today is free to download without increasing Download ]

DL-List and Torrent activity
-Два ствола / 2 Guns - Год выпуска: 2013
Производство: США
Жанр: Боевик, Триллер, Драма
Перевод: Дублированный [лицензия]
Дата мировой премьеры: 30 июля 2013
Дата российской премьеры: 5 сентября 2013, «WDSSPR»
Дата выхода DVD релиза: 18 февраля 2014, «Columbia/Sony»
Дата выхода релиза на Blu-Ray: 18 февраля 2014, «Columbia/Sony»
Режиссер: Бальтасар Кормакур
Продюсер: Эндрю Косби, Рэндолл Эмметт, Джордж Фурла
Актеры: Дензел Вашингтон, Марк Уолберг, Пола Пэттон, Билл Пэкстон, Фред Уорд, Джеймс Марсден, Эдвард Джеймс Олмос, Роберт Джон Бёрк, Грег Спролс, Патрик Фишлер
Описание фильма:
Это история двух грабителей, которые на самом деле не те, кем кажутся. Один из них — агент из управления по борьбе с наркотиками, а другой — тайный агент разведки ВМС. Сами того не желая, они занимаются расследованием дел друг друга, а также воруют деньги у мафии. Через некоторое время героям придется украсть 50 миллионов долларов у ЦРУ.

Продолжительность: 01:49:15
Качество видео: HDRip
Видео: XVID, 1 335 Kbps, 720х304, 23.976 fps
Аудио: AC-3, 448 Kbps. 6 channels, 48.0 KHz
Сэмпл: Скачать


Format                         : AVI
Format/Info                    : Audio Video Interleave
File size                      : 1.37 GiB
Duration                       : 1h 49mn
Overall bit rate               : 1 792 Kbps
Writing application            : VirtualDubMod (build 2540/release)
Writing library                : VirtualDubMod build 2540/release
ID                             : 0
Format                         : MPEG-4 Visual
Format profile                 : Advanced Simple@L5
Format settings, BVOP          : Yes
Format settings, QPel          : No
Format settings, GMC           : No warppoints
Format settings, Matrix        : Custom
Codec ID                       : XVID
Codec ID/Hint                  : XviD
Duration                       : 1h 49mn
Bit rate                       : 1 335 Kbps
Width                          : 720 pixels
Height                         : 304 pixels
Display aspect ratio           : 2.35:1
Frame rate                     : 23.976 fps
Color space                    : YUV
Chroma subsampling             : 4:2:0
Bit depth                      : 8 bits
Scan type                      : Progressive
Compression mode               : Lossy
Bits/(Pixel*Frame)             : 0.254
Stream size                    : 1.02 GiB (74%)
Writing library                : XviD 1.2.1 (UTC 2008-12-04)
ID                             : 1
Format                         : AC-3
Format/Info                    : Audio Coding 3
Mode extension                 : CM (complete main)
Format settings, Endianness    : Big
Codec ID                       : 2000
Duration                       : 1h 49mn
Bit rate mode                  : Constant
Bit rate                       : 448 Kbps
Channel count                  : 6 channels
Channel positions              : Front: L C R, Side: L R, LFE
Sampling rate                  : 48.0 KHz
Bit depth                      : 16 bits
Compression mode               : Lossy
Stream size                    : 350 MiB (25%)
Alignment                      : Split accross interleaves
Interleave, duration           : 42 ms (1.00 video frame)
Interleave, preload duration   : 500 ms


Display posts:    

Current time is: 22-Oct 02:43

All times are UTC + 3

You cannot post new topics in this forum
You cannot reply to topics in this forum
You cannot edit your posts in this forum
You cannot delete your posts in this forum
You cannot vote in polls in this forum
You cannot attach files in this forum
You cannot download files in this forum

The site does not give electronic versions of products, and is engaged only in a collecting and cataloguing of the references sent and published at a forum by our readers. If you are the legal owner of any submitted material and do not wish that the reference to it was in our catalogue, contact us and we shall immediately remove her. Files for an exchange on tracker are given by users of a site, and the administration does not bear the responsibility for their maintenance. The request to not fill in the files protected by copyrights, and also files of the illegal maintenance!