[ Сегодня идет свободное скачивание без начисления Download ]


Статистика раздачи
Скачал: [ 1 ]
 
   
 
Top  
 
 
Группа «Беломорканал» (Арутюнян Степа) (22 CD) - 1996-2010 Жанр: Шансон
Год выпуска дисков: 1996-2010
Производитель дисков: Россия
Аудио кодек: FLAC
Тип рипа: image+.cue
Битрейт аудио: lossless
Продолжительность: Указана к каждому альбому
Источник (релизер): Собственные рипы
Наличие сканов в содержимом раздачи: да
Цитата:
Простите нас все, кому мы причинили зло... Пусть будет блажен ваш сон и радостно пробуждение.
-

Биография

Степан (Спартак) Арутюнян (Неркарарян Степан Арутюнович) родился 9 января 1962 года в г. Баку Азербайджанской ССР. В двухнедельном возрасте родители перевезли в Ереван (Армянская ССР) где и получил свидетельство о рождении.
Отец был артистом балета Ереванского Государственного Академического Театра оперы и балета. Мама работала тоже в театре, в производственном цехе по костюмам и головным уборам. Учился, как и все дети, в обычной средней школе. Учился хорошо, но был хулиганом - влияние улицы сказывалось. Когда исполнилось шесть лет, бабушка купила пианино. Сам учился играть на нём. Потом музыкальная школа, по классу виолончели. Жанр "Шансон" близок с детства. Вырос на улице, родители разъезжали по гастролям, и был полностью предоставлен сам себе и двум добрым бабушкам. Оба деда погибли на фронте - один под Ростовом-на-Дону, а другой под Сталинградом. В те годы бабушка (по отцу) Соня подарила магнитофон "Электроника-302". Первыми записями на магнитофоне были Бока, Аркадий Северный. В школе с большим удовольствием участвовал в духовом оркестре. Играл на тубе - С и Б. Изучал кларнет, умеет немного играть на дудуке. В эстрадном ансамбле школы играл на бас-гитаре, на ударных инструментах. Восемь лет занимался самбо.
Профессиональный водолаз-спасатель, учился и получил диплом в 16 лет. Спасал людей на воде, когда подрабатывал в ОСВОДе до армии. Однажды, при спасении, получил травму позвоночника, из-за этого и на флот не взяли служить. Жил в русскоязычном массиве. Там жили практически все семьи военнослужащих, такой большой интернационал. Учился в русской школе. Дома русский язык был языком общения. Русскоязычные пацаны, держались отдельным кругом, в основном все были спортсмены, их как-то побаивались и старались с нами не связываться. Собирались и крутили весь день блатные песни. Ну, блатовали пацаны, так сказать. В то время уже научились у старших спрашивать и отвечать за поступки, дрались с чужаками, отчаянно и смело. В то время и прилипло прозвище Спартак. Это после широкого показа фильма, раздевался до торса и бился, как гладиатор.
Службу в армии, проходил в автомобильной роте, в Оренбурге. Полк занимался охраной колоний и газоперерабатывающего завода. В армии сначала был зачислен в полковой оркестр, но потом, за плохое поведение и нарушение дисциплины, отправили в автомобильную роту. С больным позвоночником нельзя было отправлять на ответственные посты. После срочной службы два года "валял дурака" на сверхсрочной службе, на вещевых складах, но недолго дали так жить - предложили по-доброму, по-хорошему уволиться. Работал грузчиком в магазине "Автозапчасти", затем музыкантом долгое время в ресторанах (это делал даже когда служил в армии).
Потом эпоха перестройки, сухой закон, закрытие кабаков и пошёл работать в таксомоторный парк. Когда пришло "дикое время", крутил напёрстки, открыл цех по ремонту машин. Цех занимался переделкой угнанных машин "Волга" (срок давности прошёл). Потом, после развала СССР, начались "дикие времена гангстерских войн". В начале 1990-х купил у Жени Кобылянского первое оборудование для студии и начал снова заниматься музыкой, результаты известны.
Женат. Дочь вышла замуж и родила внука. В огромном доме из живности три собаки: две кавказские овчарки и любимец семьи ротвейлер по кличке Мачо.
По характеру Степан Арутюнян человек упёртый, любит справедливость и правду. Ненавидит ложь, обман, лицемерие и стремление в отношениях с друзьями искать способ наживы. В детстве много читал, любит Пушкина, Лермонтова, Достоевского, Гоголя, Крылова. Однако гордится тем, что армянин.
Студия "Беломорканал" основана в 1995 году Стёпой Арутюняном и Станиславом Марченко. Базируется в г. Оренбурге (Россия). Часть оборудования была завезена из США и Германии. Модернизация оборудования производится практически каждый год. Инженерно-техническим направлением студии руководит Станислав Марченко. Руководство и, практически, всю работу в музыкальном направлении ведёт Михаил Павлов. Ранее эту работу в разные периоды выполняли Владимир Нелюбин и Валерий Лизнер.
Первая работа студии, альбом "Козырные тузы" группы "Беломорканал", была записана в 1995 году. При записи первого альбома группы "Беломорканал", который писали С.Арутюнян, В.Лизнер, С.Марченко и, ныне покойный Юрий Фисун, никто из них не мог серьёзно предположить, что через много лет студия станет известной для достаточно большой аудитории. Начиная свою деятельность в самом натуральном подвале, студия перебазировалась в сарай. Самой "крутой" обстановкой в сарае был арабский кондиционер, который и грел и охлаждал. А, так же, диван, обшитый велюром. Сегодня студия располагается в двухэтажном особняке на окраине Оренбурга. Идеальные условия для творчества, отдыха и работы созданы усилиями С.Арутюняна. Многие музыканты и артисты приезжают на студию работать, иногда просто отдохнуть в кругу коллег. Молодые таланты приносят свои творческие замыслы и, многим, оказывается творческая поддержка. Слава Богу, опыт профессионалов, работающих на студии, позволяет это делать. Спонсоров и меценатов у студии нет и не было. Любой проект студии коммерческий, и должен себя окупать. Иначе это просто бюджетная самодеятельность, если она не приносит дохода.
Одним из творческих и технических направлений студии является работа по оборудованию развлекательных комплексов и ресторанов музыкальным и световым оборудованием. А так же дальнейшая работа по раскрутке заведений в определённом музыкальном направлении. В творческом коллективе студии работают более десяти ди-джеев с достаточным уровнем знаний своего дела. Студия объединила в артистическое агентство несколько коллективов различных жанров и артистов, которые успешно работают не только в Оренбургском регионе. Постоянный творческий поиск и кропотливая ежедневная работа над проектами дают свои ощутимые плоды. Все творческие замыслы на сегодняшний день приобрели жизнь, и нашли своего слушателя. Ни один проект не был закрыт.
За двенадцать лет творческой работы студия дала жанру двух интересных продюсеров. Это Степан Арутюнян и Юрий Алмазов. За кулисами об этих двух талантливых людях говорят разное. Временные разногласия между ними закончились переговорами за круглым столом. Сегодня они вопреки своим "доброжелателям" снова объединили свои усилия. Переезд Валерия Лизнера из Оренбурга в Москву - это в первую очередь необходимость, вызванная творческими планами группы "Воровайки", которые начинали своё творчество с "Беломорканала". На смену В.Лизнеру пришёл не менее талантливый Михаил Павлов. Это молодой, более продвинутый композитор и аранжировщик, имеющий, как и Валера, высшее музыкальное образование.
Что плохого можно сказать о людях, которые способны творить, причем очень удачно в разных направлениях жанра? Ничего. Нет такого понятия в творчестве как лимит. Ради Бога, пиши и пой, если слушателю это нравится. Благодаря прогрессу с полок вытесняется то, что не продается. Каждый проект, каждый альбом имеет свой срок жизни. Популярность артистов определяется не отдельным мнением критиков и недовольных коллег, а количеством продаж звуконосителей, количеством концертов и наполняемостью концертных залов. Это равносильно тому, если упрекнуть артиста кино в количестве сыгранных ролей, художника в количестве написанных картин, писателя в количестве книг. Главный ответ один и тот же - востребованность.
Ключевым и по масштабу знаменательным событием для студии является договор об эксклюзивном партнерстве с фирмой грамзаписи "Монолит". Все без исключения проекты студии "Беломорканал" с 2005 года будут выпускаться только на этой фирме грамзаписи.
Проекты студии:
Группа "Беломорканал" - 1995 год;
Группа "Воровайки" - 1999 год;
"Прикольчики от Беломорчика" - 2000 год;
Проект "Уголовная Академия" - 2003 год;
Группа "Шансонетки" - 2003 год;
Группа "Криминальные Куклы" - 2004 год;
Группа "Менты" (шансон для ментов) - 2004 год;
Группа "Вовочка" - 2005 год

Взято с сайта www.shansonprofi.ru.

Альбомы

1996 - Привет, босота!

Год издания: 1997
Издатель (лейбл): Студия «МОНОЛИТ»
Номер по каталогу: 032-1
Страна: Россия
Продолжительность: 40:54
Трэклист:
01. Девочки (3:12)
02. Привет, босота! (4:34)
03. Лавешки (5:43)
04. Доля воровская (7:33)
05. Сизари (5:36)
06. Заочница (5:37)
07. Баркас (3:25)
08. Налей по 100 (5:15)

1997 - Козырные тузы

Год издания: 1997
Издатель (лейбл): Студия «МОНОЛИТ»
Номер по каталогу: МТ 062-1
Страна: Россия
Продолжительность: 44:39
Трэклист:
01. Джентельмены (5:09)
02. Комсомольцы (3:15)
03. Люсьен (4:39)
04. Первый вечер (3:25)
05. Пехота (3:27)
06. Девочка самарская (5:33)
07. Женитьба Абдуллы (2:45)
08. Письмо из лагеря (4:31)
09. Любаня (4:34)
10. Девичья мечта (3:44)
11. Чисто за жизнь (3:37)

1998 - Волки

Год издания: 1998
Издатель (лейбл): Студия «МОНОЛИТ»
Номер по каталогу: МТ 082-1
Страна: Россия
Продолжительность: 52:12
Трэклист:
01. Водочка (3:56)
02. Менты не кенты (3:15)
03. Волки (4:21)
04. Разговор с душой (4:46)
05. Ситуация (4:54)
06. Чапаевск (4:16)
07. Малолетка (3:40)
08. Элизабет (3:57)
09. Рашен гёл (3:09)
10. Бодя (3:17)
11. Прощай (5:24)
12. Дочурка (3:02)
13. Маски (4:14)

1998 - Вор

Год издания: 1998
Издатель (лейбл): Студия «МОНОЛИТ»
Номер по каталогу: МТ 093-1
Страна: Россия / Швеция
Продолжительность: 55:46
Трэклист:
01. Бычок (5:25)
02. Зэк на воле (3:37)
03. Женитьба жигана (3:17)
04. Анаша (5:43)
05. Деньги (4:25)
06. Дожились (3:29)
07. Сынок (3:04)
08. Скрипач (6:27)
09. Посвящение (3:26)
10. Вор (3:37)
11. Зойка (3:44)
12. Шалава (3:48)
13. Брат (5:44)

1999 - Ночь перед расстрелом

Год издания: 1999
Издатель (лейбл): Студия «МОНОЛИТ»
Номер по каталогу: МТ 116-1
Страна: Россия
Продолжительность: 59:34
Трэклист:
01. Жиганчики Донские (5:17)
02. Не будите (4:10)
03. Разведенные Мосты (5:45)
04. Разговор (4:44)
05. Отец (5:32)
06. Чифирок и папироса (3:43)
07. Пристань вечной тайги (6:03)
08. Сирота казанская (3:43)
09. Притча (4:45)
10. Брат мой Саня (5:28)
11. Ночь перед расстрелом (6:11)
12. Мама всегда ждет (4:14)

2000 - Блатная кровь

Год издания: 2000
Издатель (лейбл): «Классик Компани»
Номер по каталогу: CC CD 014/00
Страна: Россия
Продолжительность: 38:16
Трэклист:
01. Беломор и Волга-Балт (3:10)
02. Чифирок в карманчике (3:22)
03. Белый лебедь-чёрный ворон (4:55)
04. Срок (3:51)
05. Побег (3:51)
06. Про ментов (3:36)
07. Самко (3:07)
08. Поездка в Москву (3:30)
09. Сын прокурора (5:19)
10. Бабская прожарка (3:35)

2000 - Лагеря (Избранное)

Год издания: 2000
Издатель (лейбл): Студия «МОНОЛИТ»
Номер по каталогу: МТ 146-1
Страна: Россия
Продолжительность: 01:10:05
Трэклист:
01. Сизари (5:34)
02. Деньги (4:23)
03. Дожились (3:28)
04. Пехота (3:27)
05. Малолетка (3:39)
06. Зек на воле (3:36)
07. Бычок (5:24)
08. Брат (5:42)
09. Разведенные мосты (5:45)
10. Разговор (4:43)
11. Чифирок да папироса (3:42)
12. Сирота казанская (3:42)
13. Жиганчики донские (5:17)
14. Вор (3:35)
15. Шалава (3:46)
16. Лагеря (4:22)

2000 - «Урка Мишка»

Год издания: 2000
Издатель (лейбл): «Классик Компани»
Номер по каталогу: CC CD 010/00
Страна: Россия
Продолжительность: 47:24
Трэклист:
01. Урка Мишка (3:12)
02. Ростовский волк (3:51)
03. Бог не фраер (3:54)
04. СИзо (3:33)
05. Лагеря (4:25)
06. Роза (4:21)
07. Жизнь ворам (6:30)
08. Опер окачурился (2:55)
09. Этап (5:25)
10. Падло (3:08)
11. Баня (2:58)
12. А... поворуем? (3:13)

2001 - Жиган и Жучка

Год издания: 2001
Издатель (лейбл): «Классик Компани»
Номер по каталогу: CC CD 008 02
Страна: Россия
Продолжительность: 41:34
Трэклист:
01. Понты (4:02)
02. Весной откинулся (3:45)
03. Тормози кондуктор - мама не горюй (6:55)
04. Пила (2:04)
05. Жиган и Жучка (4:13)
06. Дрянь (4:36)
07. Старший брат (7:36)
08. Сауна с русалками (2:15)
09. Упавшая звезда (3:13)
10. Своя судьба (2:55)

2001 - Кресты

Год издания: 2001
Издатель (лейбл): «Классик Компани»
Номер по каталогу: CC CD 019/01
Страна: Россия
Продолжительность: 50:21
Трэклист:
01. Кресты (4:01)
02. Отрицалово (5:43)
03. Чечёточка (3:22)
04. Люба+жиган (4:27)
05. Письмо из крестов (4:50)
06. Жиганское танго (2:55)
07. Ночь над Магаданом (5:36)
08. Беня (3:17)
09. Брат-2 (5:10)
10. Поц хаер (5:57)
11. Два вора (5:03)

2001 - Легенды Русского шансона (том 28)

Год издания: 2001
Издатель (лейбл): «Мaster Sound Records, Ltd», Студия «МОНОЛИТ»
Номер по каталогу: MS CD-250-28 01
Страна: Россия
Продолжительность: 01:07:51
Трэклист:
01. Вор (3:36)
02. Шалава (3:46)
03. Чифирок да папироса (3:41)
04. Разведенные мосты (5:45)
05. Разговор (4:43)
06. Менты не кенты (3:14)
07. Малолетка (3:39)
08. Сизари (5:34)
09. Мама всегда ждёт (4:15)
10. Дожились (3:28)
11. Девочка самарская (5:33)
12. Налей по сто (5:17)
13. Зек на воле (3:36)
14. Брат (5:42)
15. Пристань вечной тайги (6:01)

2001 - Плановая душа

Год издания: 2001
Издатель (лейбл): S.T.M.-Records & Artur Music
Номер по каталогу: CD 075
Страна: Россия
Продолжительность: 56:34
Трэклист:
01. Не скучай (3:28)
02. Плановая душа (3:27)
03. Разведенные мосты (часть 2) (4:33)
04. Зайка (3:49)
05. Журавли на чужбине (5:04)
06. Балдею, Клава (3:50)
07. Все по-другому (3:50)
08. Друг мой, Саня (3:08)
09. На запретке (5:22)
10. Чужая женщина (4:25)
11. Гоп-стоп фраерок (3:41)
12. Бабы-разные (4:26)
13. Маринка (3:40)
14. Дай покурить (3:51)

2001 - Привет, босота 2

Год издания: 2001
Издатель (лейбл): Студия «МОНОЛИТ»
Номер по каталогу: МТ 195-1
Страна: Россия
Продолжительность: 51:21
Трэклист:
01. Серенада (5:06)
02. Баркас (3:25)
03. Доля воровская (7:33)
04. Сизари (5:36)
05. Девочки (3:12)
06. Я завязал (5:19)
07. Привет, босота (4:34)
08. Налей по сто (5:17)
09. Лавешки (5:43)
10. Заочница (5:35)

2002 - Побег (Новое-лучшее)

Год издания: 2002
Издатель (лейбл): Студия «МОНОЛИТ»
Номер по каталогу: МТ 098-1
Страна: Россия
Продолжительность: 01:06:50
Трэклист:
01. Побег (3:50)
02. Чифирок в карманчике (3:21)
03. Привет босота (4:34)
04. Девочки (3:12)
05. Менты не кенты (3:15)
06. Налей по 100 (5:17)
07. Люсьен (4:38)
08. Водочка (3:56)
09. Доля воровская (7:33)
10. Первый вечер (3:24)
11. Сашко (3:06)
12. Волки (4:21)
13. Заочница (5:37)
14. Пристань вечной тайги (6:03)
15. Разговор с душой (4:44)

2002 - Сын инженера и врачихи

Год издания: 2002
Издатель (лейбл): «Русский Шансон»
Номер по каталогу: РШ CD 009/02
Страна: Россия
Продолжительность: 38:53
Трэклист:
01. Любовь моя жиганская (3:25)
02. На берегах чужих морей (3:20)
03. Арестанская душа (3:31)
04. Королева обочин и колхозных полей (2:21)
05. Сын инженера и врачихи (3:08)
06. Алёнушка (4:13)
07. Питерский кабак (3:47)
08. Ну, что, начальничек? (2:34)
09. Мочалка (2:37)
10. Штрафные батальоны (3:16)
11. Зараза (3:31)
12. В зеркале старом... (3:09)

2003 - Луноходы

Год издания: 2003
Издатель (лейбл): «Мaster Sound Records, Ltd»
Номер по каталогу: MS CD 514/03
Страна: Россия
Продолжительность: 01:15:12
Трэклист:
01. Встречай (3:29)
02. Чифирок и папироса (3:42)
03. Луноходы (4:06)
04. Аленушка (4:13)
05. Вор (3:35)
06. Урка Сеня "Вырви глаз" (3:47)
07. Арестансткая душа (3:31)
08. Разведенные мосты (5:45)
09. Пристань вечной тайги (6:03)
10. Разговор (4:43)
11. Любовь жиганская (3:25)
12. Дожились (3:28)
13. Брат (5:42)
14. Зек на воле (3:36)
15. На берегах чужих морей (3:20)
16. Шалава (3:46)
17. Плановая (3:28)
18. Девочка самарская (5:32)

2003 - Папиросочка

Год издания: 2003
Издатель (лейбл): «Классик Компани»
Номер по каталогу: CC CD 014/03
Страна: Россия
Продолжительность: 51:18
Трэклист:
01. Папиросочка (4:05)
02. БАМъ (3:08)
03. Скрипач (4:13)
04. Я очарован и влюблён (5:25)
05. Денюха (4:28)
06. Всё украли (3:47)
07. Катюха (4:32)
08. Дура-дурой (3:50)
09. Путеводная звезда (3:49)
10. Зачем вы девочки... (4:04)
11. Волчья песня (5:07)
12. Крысы (4:49)

2004 - Человек из тюрьмы

Год издания: 2004
Издатель (лейбл): Студия «МОНОЛИТ»
Номер по каталогу: МТ 702909-445-1
Страна: Россия
Продолжительность: 33:46
Трэклист:
01. Памяти друга (1:37)
02. Я не виноват (3:13)
03. Человек из тюрьмы (4:17)
04. Верни мне крест (4:09)
05. Ангелы (4:59)
06. Запретная зона (4:07)
07. Исповедь (4:02)
08. Ж.В.С.С. (2:53)
09. Весна в лагере (4:29)

2006 - Блатарь

Год издания: 2006
Издатель (лейбл): Студия «МОНОЛИТ»
Номер по каталогу: МТ 711507-200-1
Страна: Россия
Продолжительность: 38:59
Трэклист:
01. Я бегу (3:39)
02. Легче воруется (3:18)
03. Блатарь (5:05)
04. Чашка ложка (4:16)
05. Потому что вор (3:56)
06. Три жизни (4:01)
07. Я приеду весной (4:07)
08. Манюня (3:56)
09. Смирнуха (3:08)
10. Осенняя грусть (3:34)

2007 - Не в деньгах счастье

Год издания: 2007
Издатель (лейбл): Студия «МОНОЛИТ»
Номер по каталогу: МТ 716391-158-1
Страна: Россия
Продолжительность: 50:12
Трэклист:
01. Проза жизни (4:32)
02. Дай воды (4:03)
03. Не в деньгах счастье (3:57)
04. Голубой (3:49)
05. Мама (4:52)
06. Мыши (2:48)
07. Посылочка (3:33)
08. Натура (2:58)
09. Пароход (3:49)
10. От этого тоста (3:48)
11. Всё,кроме зарплаты (2:56)
12. Смерть без мата (2:59)
13. Коридор (3:17)
14. Сейф (2:52)

2010 - Золотой альбом

Год издания: 2010
Издатель (лейбл): «СИ ДИ ЛЭНД МЕДИА»
Номер по каталогу: CDLREC 5392010 CD
Страна: Россия
Продолжительность: 01:18:05
Трэклист:
01. Последний куш (3:39)
02. Чифирок и папироса (3:41)
03. Разведенные мосты (5:44)
04. Кайло (3:06)
05. Пристань вечной тайги (6:02)
06. Посвящение (3:25)
07. Дожились (3:29)
08. Журавли (5:42)
09. Первый вечер (3:23)
10. Вор (3:36)
11. Зэк на воле (3:37)
12. Сизари (5:35)
13. Водочка (3:55)
14. Мама всегда ждет (4:15)
15. Девочка самарская (5:32)
16. Малолетка (3:39)
17. Маски (4:16)
18. Отец (5:31)

2010 - Последний куш

Год издания: 2010
Издатель (лейбл): «СИ ДИ ЛЭНД МЕДИА»
Номер по каталогу: CDLREC 5062010 CD
Страна: Россия
Продолжительность: 43:38
Трэклист:
01. Последний куш (3:37)
02. Журавли (5:41)
03. Кайло (3:05)
04. Централка (3:25)
05. Ты замужем, а я уже зека (3:26)
06. Гражданин начальник (3:33)
07. Мадам (4:05)
08. Скрипач в законе (3:00)
09. Цацки цыганские (4:34)
10. Бродяга, терпи (4:28)
11. Памяти друзей (4:43)

Техническая информация

Логи создания рипов

1996 - Привет, босота!

Exact Audio Copy V0.99 prebeta 4 from 23. January 2008
Отчёт EAC об извлечении, выполненном 15. февраля 2012, 17:23
Беломорканал / Привет, босота!
Дисковод: ASUS DRW-1814BLT Adapter: 5 ID: 0
Режим чтения : ДостоверностьИспользование точного потока : ДаОтключение кэша аудио : ДаИспользование указателей C2 : Нет
Коррекция смещения при чтении : 6Способность читать области Lead-in и Lead-out : НетЗаполнение пропущенных сэмплов тишиной : ДаУдаление блоков с тишиной в начале и конце : НетПри вычислениях CRC использовались нулевые сэмплы : ДаИнтерфейс : Установленный внешний ASPI-интерфейс
Выходной формат : Внутренние WAV-операцииФормат сэмплов : 44.100 Гц; 16 бит; стерео
TOC извлечённого CD
Трек | Старт | Длительность | Начальный сектор | Конечный сектор --------------------------------------------------------------------- 1 | 0:00.00 | 3:11.45 | 0 | 14369 2 | 3:11.45 | 4:34.07 | 14370 | 34926 3 | 7:45.52 | 5:42.63 | 34927 | 60639 4 | 13:28.40 | 7:32.55 | 60640 | 94594 5 | 21:01.20 | 5:36.05 | 94595 | 119799 6 | 26:37.25 | 5:37.10 | 119800 | 145084 7 | 32:14.35 | 3:24.57 | 145085 | 160441 8 | 35:39.17 | 5:15.20 | 160442 | 184086
Характеристики диапазона извлечения и сообщения об ошибках
Выбранный диапазон
Имя файла D:\ale2187\Беломорканал - Привет, босота!.wav
Пиковый уровень 97.7 % Качество диапазона 100.0 % CRC теста 240C38C2 CRC копии 240C38C2 Копирование... OK
Ошибок не произошло
AccurateRip: сводка
Трек 1 нет в базе данныхТрек 2 нет в базе данныхТрек 3 нет в базе данныхТрек 4 нет в базе данныхТрек 5 нет в базе данныхТрек 6 нет в базе данныхТрек 7 нет в базе данныхТрек 8 нет в базе данных
Ни одного трека нет в базе AccurateRip
Конец отчёта

1997 - Козырные тузы

Exact Audio Copy V0.99 prebeta 4 from 23. January 2008
Отчёт EAC об извлечении, выполненном 14. февраля 2012, 18:13
Беломорканал / Козырные тузы
Дисковод: ASUS DRW-1814BLT Adapter: 5 ID: 0
Режим чтения : ДостоверностьИспользование точного потока : ДаОтключение кэша аудио : ДаИспользование указателей C2 : Нет
Коррекция смещения при чтении : 6Способность читать области Lead-in и Lead-out : НетЗаполнение пропущенных сэмплов тишиной : ДаУдаление блоков с тишиной в начале и конце : НетПри вычислениях CRC использовались нулевые сэмплы : ДаИнтерфейс : Установленный внешний ASPI-интерфейс
Выходной формат : Внутренние WAV-операцииФормат сэмплов : 44.100 Гц; 16 бит; стерео
TOC извлечённого CD
Трек | Старт | Длительность | Начальный сектор | Конечный сектор --------------------------------------------------------------------- 1 | 0:00.00 | 5:09.32 | 0 | 23206 2 | 5:09.32 | 3:15.33 | 23207 | 37864 3 | 8:24.65 | 4:38.60 | 37865 | 58774 4 | 13:03.50 | 3:24.55 | 58775 | 74129 5 | 16:28.30 | 3:27.10 | 74130 | 89664 6 | 19:55.40 | 5:32.52 | 89665 | 114616 7 | 25:28.17 | 2:45.23 | 114617 | 127014 8 | 28:13.40 | 4:30.50 | 127015 | 147314 9 | 32:44.15 | 4:34.10 | 147315 | 167874 10 | 37:18.25 | 3:44.20 | 167875 | 184694 11 | 41:02.45 | 3:36.65 | 184695 | 200959
Характеристики диапазона извлечения и сообщения об ошибках
Выбранный диапазон
Имя файла D:\ale2187\Беломорканал - Козырные тузы.wav
Пиковый уровень 100.0 % Качество диапазона 100.0 % CRC теста 467E0911 CRC копии 467E0911 Копирование... OK
Ошибок не произошло
AccurateRip: сводка
Трек 1 нет в базе данныхТрек 2 нет в базе данныхТрек 3 нет в базе данныхТрек 4 нет в базе данныхТрек 5 нет в базе данныхТрек 6 нет в базе данныхТрек 7 нет в базе данныхТрек 8 нет в базе данныхТрек 9 нет в базе данныхТрек 10 нет в базе данныхТрек 11 нет в базе данных
Ни одного трека нет в базе AccurateRip
Конец отчёта

1998 - Волки

Exact Audio Copy V0.99 prebeta 4 from 23. January 2008
Отчёт EAC об извлечении, выполненном 15. февраля 2012, 13:18
Беломорканал / Волки
Дисковод: ASUS DRW-1814BLT Adapter: 5 ID: 0
Режим чтения : ДостоверностьИспользование точного потока : ДаОтключение кэша аудио : ДаИспользование указателей C2 : Нет
Коррекция смещения при чтении : 6Способность читать области Lead-in и Lead-out : НетЗаполнение пропущенных сэмплов тишиной : ДаУдаление блоков с тишиной в начале и конце : НетПри вычислениях CRC использовались нулевые сэмплы : ДаИнтерфейс : Установленный внешний ASPI-интерфейс
Выходной формат : Внутренние WAV-операцииФормат сэмплов : 44.100 Гц; 16 бит; стерео
TOC извлечённого CD
Трек | Старт | Длительность | Начальный сектор | Конечный сектор --------------------------------------------------------------------- 1 | 0:00.00 | 3:55.60 | 0 | 17684 2 | 3:55.60 | 3:15.00 | 17685 | 32309 3 | 7:10.60 | 4:20.72 | 32310 | 51881 4 | 11:31.57 | 4:45.74 | 51882 | 73330 5 | 16:17.56 | 4:53.48 | 73331 | 95353 6 | 21:11.29 | 4:16.32 | 95354 | 114585 7 | 25:27.61 | 3:39.55 | 114586 | 131065 8 | 29:07.41 | 3:57.03 | 131066 | 148843 9 | 33:04.44 | 3:09.25 | 148844 | 163043 10 | 36:13.69 | 3:16.44 | 163044 | 177787 11 | 39:30.38 | 5:24.35 | 177788 | 202122 12 | 44:54.73 | 3:02.35 | 202123 | 215807 13 | 47:57.33 | 4:14.19 | 215808 | 234876
Характеристики диапазона извлечения и сообщения об ошибках
Выбранный диапазон
Имя файла D:\ale2187\Беломорканал - Волки.wav
Пиковый уровень 97.7 % Качество диапазона 99.9 % CRC теста 4F60D80D CRC копии 4F60D80D Копирование... OK
Ошибок не произошло
AccurateRip: сводка
Трек 1 нет в базе данныхТрек 2 нет в базе данныхТрек 3 нет в базе данныхТрек 4 нет в базе данныхТрек 5 нет в базе данныхТрек 6 нет в базе данныхТрек 7 нет в базе данныхТрек 8 нет в базе данныхТрек 9 нет в базе данныхТрек 10 нет в базе данныхТрек 11 нет в базе данныхТрек 12 нет в базе данныхТрек 13 нет в базе данных
Ни одного трека нет в базе AccurateRip
Конец отчёта

1998 - Вор

Exact Audio Copy V0.99 prebeta 4 from 23. January 2008
Отчёт EAC об извлечении, выполненном 14. февраля 2012, 13:13
Беломорканал / Вор
Дисковод: ASUS DRW-1814BLT Adapter: 5 ID: 0
Режим чтения : ДостоверностьИспользование точного потока : ДаОтключение кэша аудио : ДаИспользование указателей C2 : Нет
Коррекция смещения при чтении : 6Способность читать области Lead-in и Lead-out : НетЗаполнение пропущенных сэмплов тишиной : ДаУдаление блоков с тишиной в начале и конце : НетПри вычислениях CRC использовались нулевые сэмплы : ДаИнтерфейс : Установленный внешний ASPI-интерфейс
Выходной формат : Внутренние WAV-операцииФормат сэмплов : 44.100 Гц; 16 бит; стерео
TOC извлечённого CD
Трек | Старт | Длительность | Начальный сектор | Конечный сектор --------------------------------------------------------------------- 1 | 0:00.01 | 5:25.12 | 1 | 24387 2 | 5:25.13 | 3:36.74 | 24388 | 40661 3 | 9:02.12 | 3:17.00 | 40662 | 55436 4 | 12:19.12 | 5:43.00 | 55437 | 81161 5 | 18:02.12 | 4:25.00 | 81162 | 101036 6 | 22:27.12 | 3:29.01 | 101037 | 116712 7 | 25:56.13 | 3:04.00 | 116713 | 130512 8 | 29:00.13 | 6:26.74 | 130513 | 159536 9 | 35:27.12 | 3:26.00 | 159537 | 174986 10 | 38:53.12 | 3:37.01 | 174987 | 191262 11 | 42:30.13 | 3:44.00 | 191263 | 208062 12 | 46:14.13 | 3:47.74 | 208063 | 225161 13 | 50:02.12 | 5:43.39 | 225162 | 250925
Характеристики диапазона извлечения и сообщения об ошибках
Выбранный диапазон
Имя файла D:\ale2187\Беломорканал - Вор.wav
Пиковый уровень 100.0 % Качество диапазона 100.0 % CRC теста 71A017AA CRC копии 71A017AA Копирование... OK
Ошибок не произошло
AccurateRip: сводка
Трек 1 нет в базе данныхТрек 2 нет в базе данныхТрек 3 нет в базе данныхТрек 4 нет в базе данныхТрек 5 нет в базе данныхТрек 6 нет в базе данныхТрек 7 нет в базе данныхТрек 8 нет в базе данныхТрек 9 нет в базе данныхТрек 10 нет в базе данныхТрек 11 нет в базе данныхТрек 12 нет в базе данныхТрек 13 нет в базе данных
Ни одного трека нет в базе AccurateRip
Конец отчёта

1999 - Ночь перед расстрелом

Exact Audio Copy V0.99 prebeta 4 from 23. January 2008
Отчёт EAC об извлечении, выполненном 14. февраля 2012, 14:12
Беломорканал / Ночь перед расстрелом
Дисковод: ASUS DRW-1814BLT Adapter: 5 ID: 0
Режим чтения : ДостоверностьИспользование точного потока : ДаОтключение кэша аудио : ДаИспользование указателей C2 : Нет
Коррекция смещения при чтении : 6Способность читать области Lead-in и Lead-out : НетЗаполнение пропущенных сэмплов тишиной : ДаУдаление блоков с тишиной в начале и конце : НетПри вычислениях CRC использовались нулевые сэмплы : ДаИнтерфейс : Установленный внешний ASPI-интерфейс
Выходной формат : Внутренние WAV-операцииФормат сэмплов : 44.100 Гц; 16 бит; стерео
TOC извлечённого CD
Трек | Старт | Длительность | Начальный сектор | Конечный сектор --------------------------------------------------------------------- 1 | 0:00.00 | 5:16.47 | 0 | 23746 2 | 5:16.47 | 4:09.40 | 23747 | 42461 3 | 9:26.12 | 5:44.65 | 42462 | 68326 4 | 15:11.02 | 4:44.23 | 68327 | 89649 5 | 19:55.25 | 5:32.10 | 89650 | 114559 6 | 25:27.35 | 3:42.50 | 114560 | 131259 7 | 29:10.10 | 6:02.43 | 131260 | 158452 8 | 35:12.53 | 3:42.70 | 158453 | 175172 9 | 38:55.48 | 4:45.27 | 175173 | 196574 10 | 43:41.00 | 5:27.58 | 196575 | 221157 11 | 49:08.58 | 6:11.01 | 221158 | 248983 12 | 55:19.59 | 4:14.29 | 248984 | 268062
Характеристики диапазона извлечения и сообщения об ошибках
Выбранный диапазон
Имя файла D:\ale2187\Беломорканал - Ночь перед расстрелом.wav
Пиковый уровень 97.7 % Качество диапазона 100.0 % CRC теста 6324CC1B CRC копии 6324CC1B Копирование... OK
Ошибок не произошло
AccurateRip: сводка
Трек 1 нет в базе данныхТрек 2 нет в базе данныхТрек 3 нет в базе данныхТрек 4 нет в базе данныхТрек 5 нет в базе данныхТрек 6 нет в базе данныхТрек 7 нет в базе данныхТрек 8 нет в базе данныхТрек 9 нет в базе данныхТрек 10 нет в базе данныхТрек 11 нет в базе данныхТрек 12 нет в базе данных
Ни одного трека нет в базе AccurateRip
Конец отчёта

2000 - Блатная кровь

Exact Audio Copy V0.99 prebeta 4 from 23. January 2008
Отчёт EAC об извлечении, выполненном 14. февраля 2012, 17:37
Беломорканал / Блатная кровь
Дисковод: ASUS DRW-1814BLT Adapter: 5 ID: 0
Режим чтения : ДостоверностьИспользование точного потока : ДаОтключение кэша аудио : ДаИспользование указателей C2 : Нет
Коррекция смещения при чтении : 6Способность читать области Lead-in и Lead-out : НетЗаполнение пропущенных сэмплов тишиной : ДаУдаление блоков с тишиной в начале и конце : НетПри вычислениях CRC использовались нулевые сэмплы : ДаИнтерфейс : Установленный внешний ASPI-интерфейс
Выходной формат : Внутренние WAV-операцииФормат сэмплов : 44.100 Гц; 16 бит; стерео
TOC извлечённого CD
Трек | Старт | Длительность | Начальный сектор | Конечный сектор --------------------------------------------------------------------- 1 | 0:00.00 | 3:09.73 | 0 | 14247 2 | 3:09.73 | 3:22.33 | 14248 | 29430 3 | 6:32.31 | 4:54.74 | 29431 | 51554 4 | 11:27.30 | 3:51.03 | 51555 | 68882 5 | 15:18.33 | 3:51.14 | 68883 | 86221 6 | 19:09.47 | 3:36.05 | 86222 | 102426 7 | 22:45.52 | 3:06.64 | 102427 | 116440 8 | 25:52.41 | 3:29.63 | 116441 | 132178 9 | 29:22.29 | 5:19.05 | 132179 | 156108 10 | 34:41.34 | 3:34.40 | 156109 | 172198
Характеристики диапазона извлечения и сообщения об ошибках
Выбранный диапазон
Имя файла D:\ale2187\Беломорканал - Блатная кровь.wav
Пиковый уровень 98.8 % Качество диапазона 100.0 % CRC теста A16A0CAA CRC копии A16A0CAA Копирование... OK
Ошибок не произошло
AccurateRip: сводка
Трек 1 нет в базе данныхТрек 2 нет в базе данныхТрек 3 нет в базе данныхТрек 4 нет в базе данныхТрек 5 нет в базе данныхТрек 6 нет в базе данныхТрек 7 нет в базе данныхТрек 8 нет в базе данныхТрек 9 нет в базе данныхТрек 10 нет в базе данных
Ни одного трека нет в базе AccurateRip
Конец отчёта

2000 - Лагеря (Избранное)

Exact Audio Copy V0.99 prebeta 4 from 23. January 2008
Отчёт EAC об извлечении, выполненном 14. февраля 2012, 12:05
Беломорканал / Лагеря (Избранное)
Дисковод: ASUS DRW-1814BLT Adapter: 5 ID: 0
Режим чтения : ДостоверностьИспользование точного потока : ДаОтключение кэша аудио : ДаИспользование указателей C2 : Нет
Коррекция смещения при чтении : 6Способность читать области Lead-in и Lead-out : НетЗаполнение пропущенных сэмплов тишиной : ДаУдаление блоков с тишиной в начале и конце : НетПри вычислениях CRC использовались нулевые сэмплы : ДаИнтерфейс : Установленный внешний ASPI-интерфейс
Выходной формат : Внутренние WAV-операцииФормат сэмплов : 44.100 Гц; 16 бит; стерео
TOC извлечённого CD
Трек | Старт | Длительность | Начальный сектор | Конечный сектор --------------------------------------------------------------------- 1 | 0:00.00 | 5:34.26 | 0 | 25075 2 | 5:34.26 | 4:23.00 | 25076 | 44800 3 | 9:57.26 | 3:27.73 | 44801 | 60398 4 | 13:25.24 | 3:26.58 | 60399 | 75906 5 | 16:52.07 | 3:38.44 | 75907 | 92300 6 | 20:30.51 | 3:36.00 | 92301 | 108500 7 | 24:06.51 | 5:24.03 | 108501 | 132803 8 | 29:30.54 | 5:42.05 | 132804 | 158458 9 | 35:12.59 | 5:44.69 | 158459 | 184327 10 | 40:57.53 | 4:43.20 | 184328 | 205572 11 | 45:40.73 | 3:41.52 | 205573 | 222199 12 | 49:22.50 | 3:42.35 | 222200 | 238884 13 | 53:05.10 | 5:16.42 | 238885 | 262626 14 | 58:21.52 | 3:35.19 | 262627 | 278770 15 | 61:56.71 | 3:45.66 | 278771 | 295711 16 | 65:42.62 | 4:21.68 | 295712 | 315354
Характеристики диапазона извлечения и сообщения об ошибках
Выбранный диапазон
Имя файла D:\ale2187\Беломорканал - Лагеря (Избранное).wav
Пиковый уровень 99.9 % Качество диапазона 100.0 % CRC теста 024ABBFD CRC копии 024ABBFD Копирование... OK
Ошибок не произошло
AccurateRip: сводка
Трек 1 нет в базе данныхТрек 2 нет в базе данныхТрек 3 нет в базе данныхТрек 4 нет в базе данныхТрек 5 нет в базе данныхТрек 6 нет в базе данныхТрек 7 нет в базе данныхТрек 8 нет в базе данныхТрек 9 нет в базе данныхТрек 10 нет в базе данныхТрек 11 нет в базе данныхТрек 12 нет в базе данныхТрек 13 нет в базе данныхТрек 14 нет в базе данныхТрек 15 нет в базе данныхТрек 16 нет в базе данных
Ни одного трека нет в базе AccurateRip
Конец отчёта

2000 - Урка Мишка

Exact Audio Copy V0.99 prebeta 4 from 23. January 2008
Отчёт EAC об извлечении, выполненном 15. февраля 2012, 10:25
Беломорканал / Урка Мишка
Дисковод: ASUS DRW-1814BLT Adapter: 5 ID: 0
Режим чтения : ДостоверностьИспользование точного потока : ДаОтключение кэша аудио : ДаИспользование указателей C2 : Нет
Коррекция смещения при чтении : 6Способность читать области Lead-in и Lead-out : НетЗаполнение пропущенных сэмплов тишиной : ДаУдаление блоков с тишиной в начале и конце : НетПри вычислениях CRC использовались нулевые сэмплы : ДаИнтерфейс : Установленный внешний ASPI-интерфейс
Выходной формат : Внутренние WAV-операцииФормат сэмплов : 44.100 Гц; 16 бит; стерео
TOC извлечённого CD
Трек | Старт | Длительность | Начальный сектор | Конечный сектор --------------------------------------------------------------------- 1 | 0:00.00 | 3:12.17 | 0 | 14416 2 | 3:12.17 | 3:50.49 | 14417 | 31715 3 | 7:02.66 | 3:53.54 | 31716 | 49244 4 | 10:56.45 | 3:32.47 | 49245 | 65191 5 | 14:29.17 | 4:24.67 | 65192 | 85058 6 | 18:54.09 | 4:20.51 | 85059 | 104609 7 | 23:14.60 | 6:29.52 | 104610 | 133836 8 | 29:44.37 | 2:54.56 | 133837 | 146942 9 | 32:39.18 | 5:25.31 | 146943 | 171348 10 | 38:04.49 | 3:08.35 | 171349 | 185483 11 | 41:13.09 | 2:57.57 | 185484 | 198815 12 | 44:10.66 | 3:12.57 | 198816 | 213272
Характеристики диапазона извлечения и сообщения об ошибках
Выбранный диапазон
Имя файла D:\ale2187\Беломорканал - Урка Мишка.wav
Пиковый уровень 96.5 % Качество диапазона 100.0 % CRC теста 8C65EC24 CRC копии 8C65EC24 Копирование... OK
Ошибок не произошло
AccurateRip: сводка
Трек 1 нет в базе данныхТрек 2 нет в базе данныхТрек 3 нет в базе данныхТрек 4 нет в базе данныхТрек 5 нет в базе данныхТрек 6 нет в базе данныхТрек 7 нет в базе данныхТрек 8 нет в базе данныхТрек 9 нет в базе данныхТрек 10 нет в базе данныхТрек 11 нет в базе данныхТрек 12 нет в базе данных
Ни одного трека нет в базе AccurateRip
Конец отчёта

2001 - Жиган и Жучка

Exact Audio Copy V0.99 prebeta 4 from 23. January 2008
Отчёт EAC об извлечении, выполненном 14. февраля 2012, 11:21
Беломорканал / Жиган и Жучка
Дисковод: ASUS DRW-1814BLT Adapter: 5 ID: 0
Режим чтения : ДостоверностьИспользование точного потока : ДаОтключение кэша аудио : ДаИспользование указателей C2 : Нет
Коррекция смещения при чтении : 6Способность читать области Lead-in и Lead-out : НетЗаполнение пропущенных сэмплов тишиной : ДаУдаление блоков с тишиной в начале и конце : НетПри вычислениях CRC использовались нулевые сэмплы : ДаИнтерфейс : Установленный внешний ASPI-интерфейс
Выходной формат : Внутренние WAV-операцииФормат сэмплов : 44.100 Гц; 16 бит; стерео
TOC извлечённого CD
Трек | Старт | Длительность | Начальный сектор | Конечный сектор --------------------------------------------------------------------- 1 | 0:00.00 | 4:01.56 | 0 | 18130 2 | 4:01.56 | 3:44.58 | 18131 | 34988 3 | 7:46.39 | 6:55.29 | 34989 | 66142 4 | 14:41.68 | 2:03.45 | 66143 | 75412 5 | 16:45.38 | 4:12.73 | 75413 | 94385 6 | 20:58.36 | 4:36.09 | 94386 | 115094 7 | 25:34.45 | 7:35.44 | 115095 | 149263 8 | 33:10.14 | 2:15.20 | 149264 | 159408 9 | 35:25.34 | 3:12.66 | 159409 | 173874 10 | 38:38.25 | 2:55.22 | 173875 | 187021
Характеристики диапазона извлечения и сообщения об ошибках
Выбранный диапазон
Имя файла D:\ale2187\Беломорканал - Жиган и Жучка.wav
Пиковый уровень 96.5 % Качество диапазона 100.0 % CRC теста 9EF9F219 CRC копии 9EF9F219 Копирование... OK
Ошибок не произошло
AccurateRip: сводка
Трек 1 точность не определена (достоверность 1) [AEFE66B5], AccurateRip вернул [D379C9BC]Трек 2 точность не определена (достоверность 1) [2F8C2447], AccurateRip вернул [367F785D]Трек 3 точность не определена (достоверность 1) [3EB535BE], AccurateRip вернул [4CDF0ACD]Трек 4 точность не определена (достоверность 1) [51C7391D], AccurateRip вернул [3A618805]Трек 5 точность не определена (достоверность 1) [6A156D2A], AccurateRip вернул [FAA4D2ED]Трек 6 точность не определена (достоверность 1) [978EE93D], AccurateRip вернул [BAA68A56]Трек 7 точность не определена (достоверность 1) [9DD508D3], AccurateRip вернул [199454BB]Трек 8 точность не определена (достоверность 1) [48522B1C], AccurateRip вернул [B1832587]Трек 9 точность не определена (достоверность 1) [D5E70798], AccurateRip вернул [56697F50]Трек 10 точность не определена (достоверность 1) [5CF0DBDF], AccurateRip вернул [F0D5D75F]
Ни один трек не прошёл проверки на точностьВ вашей базе может быть иной вариант штамповки диска
Конец отчёта

2001 - Кресты

Exact Audio Copy V0.99 prebeta 4 from 23. January 2008
Отчёт EAC об извлечении, выполненном 15. февраля 2012, 11:07
Беломорканал / Кресты
Дисковод: ASUS DRW-1814BLT Adapter: 5 ID: 0
Режим чтения : ДостоверностьИспользование точного потока : ДаОтключение кэша аудио : ДаИспользование указателей C2 : Нет
Коррекция смещения при чтении : 6Способность читать области Lead-in и Lead-out : НетЗаполнение пропущенных сэмплов тишиной : ДаУдаление блоков с тишиной в начале и конце : НетПри вычислениях CRC использовались нулевые сэмплы : ДаИнтерфейс : Установленный внешний ASPI-интерфейс
Выходной формат : Внутренние WAV-операцииФормат сэмплов : 44.100 Гц; 16 бит; стерео
TOC извлечённого CD
Трек | Старт | Длительность | Начальный сектор | Конечный сектор --------------------------------------------------------------------- 1 | 0:00.00 | 4:00.73 | 0 | 18072 2 | 4:00.73 | 5:43.08 | 18073 | 43805 3 | 9:44.06 | 3:21.54 | 43806 | 58934 4 | 13:05.60 | 4:26.60 | 58935 | 78944 5 | 17:32.45 | 4:49.67 | 78945 | 100686 6 | 22:22.37 | 2:54.43 | 100687 | 113779 7 | 25:17.05 | 5:35.63 | 113780 | 138967 8 | 30:52.68 | 3:17.24 | 138968 | 153766 9 | 34:10.17 | 5:10.36 | 153767 | 177052 10 | 39:20.53 | 5:57.20 | 177053 | 203847 11 | 45:17.73 | 5:02.57 | 203848 | 226554
Характеристики диапазона извлечения и сообщения об ошибках
Выбранный диапазон
Имя файла D:\ale2187\Беломорканал - Кресты.wav
Пиковый уровень 93.3 % Качество диапазона 100.0 % CRC теста 5665153E CRC копии 5665153E Копирование... OK
Ошибок не произошло
AccurateRip: сводка
Трек 1 точность не определена (достоверность 1) [24D47A40], AccurateRip вернул [A488AEB1]Трек 2 точность не определена (достоверность 1) [3C936B6C], AccurateRip вернул [08E4B18F]Трек 3 точность не определена (достоверность 1) [411503D5], AccurateRip вернул [6A449F87]Трек 4 точность не определена (достоверность 1) [B70D448E], AccurateRip вернул [60F08E6E]Трек 5 точность не определена (достоверность 1) [5089CF8C], AccurateRip вернул [8F2B214E]Трек 6 точность не определена (достоверность 1) [5A146314], AccurateRip вернул [DE1B1AED]Трек 7 точность не определена (достоверность 1) [954135BA], AccurateRip вернул [363E2B02]Трек 8 точность не определена (достоверность 1) [05FDE04B], AccurateRip вернул [7E4E2B6C]Трек 9 точность не определена (достоверность 1) [895F480E], AccurateRip вернул [04827599]Трек 10 точность не определена (достоверность 1) [52E9673C], AccurateRip вернул [CC9322EA]Трек 11 точность не определена (достоверность 1) [4CDD1829], AccurateRip вернул [F91EF851]
Ни один трек не прошёл проверки на точностьВ вашей базе может быть иной вариант штамповки диска
Конец отчёта

2001 - Легенды Русского шансона (том28)

Exact Audio Copy V0.99 prebeta 4 from 23. January 2008
Отчёт EAC об извлечении, выполненном 7. марта 2012, 15:57
Беломорканал / Легенды русского шансона (том28)
Дисковод: ASUS DRW-1814BLT Adapter: 5 ID: 0
Режим чтения : ДостоверностьИспользование точного потока : ДаОтключение кэша аудио : ДаИспользование указателей C2 : Нет
Коррекция смещения при чтении : 6Способность читать области Lead-in и Lead-out : НетЗаполнение пропущенных сэмплов тишиной : ДаУдаление блоков с тишиной в начале и конце : НетПри вычислениях CRC использовались нулевые сэмплы : ДаИнтерфейс : Установленный внешний ASPI-интерфейс
Выходной формат : Внутренние WAV-операцииФормат сэмплов : 44.100 Гц; 16 бит; стерео
TOC извлечённого CD
Трек | Старт | Длительность | Начальный сектор | Конечный сектор --------------------------------------------------------------------- 1 | 0:00.00 | 3:35.43 | 0 | 16167 2 | 3:35.43 | 3:45.69 | 16168 | 33111 3 | 7:21.37 | 3:41.35 | 33112 | 49721 4 | 11:02.72 | 5:45.11 | 49722 | 75607 5 | 16:48.08 | 4:43.23 | 75608 | 96855 6 | 21:31.31 | 3:14.15 | 96856 | 111420 7 | 24:45.46 | 3:38.48 | 111421 | 127818 8 | 28:24.19 | 5:34.34 | 127819 | 152902 9 | 33:58.53 | 4:15.06 | 152903 | 172033 10 | 38:13.59 | 3:27.74 | 172034 | 187632 11 | 41:41.58 | 5:32.60 | 187633 | 212592 12 | 47:14.43 | 5:17.13 | 212593 | 236380 13 | 52:31.56 | 3:36.10 | 236381 | 252590 14 | 56:07.66 | 5:42.21 | 252591 | 278261 15 | 61:50.12 | 6:00.41 | 278262 | 305302
Характеристики диапазона извлечения и сообщения об ошибках
Выбранный диапазон
Имя файла D:\ale2187\Беломорканал - Легенды русского шансона (том28).wav
Пиковый уровень 99.2 % Качество диапазона 100.0 % CRC теста A91D6F5E CRC копии A91D6F5E Копирование... OK
Ошибок не произошло
AccurateRip: сводка
Трек 1 точное извлечение (доверие 1) [5D515556]Трек 2 точное извлечение (доверие 1) [F306A3B6]Трек 3 точное извлечение (доверие 1) [E1718443]Трек 4 точное извлечение (доверие 1) [3A169238]Трек 5 точное извлечение (доверие 1) [7D7C18B5]Трек 6 точное извлечение (доверие 1) [C28E7007]Трек 7 точное извлечение (доверие 1) [B9C65115]Трек 8 точное извлечение (доверие 1) [CF396160]Трек 9 точное извлечение (доверие 1) [FE2B9298]Трек 10 точное извлечение (доверие 1) [C9DD1660]Трек 11 точное извлечение (доверие 1) [BECE8AC7]Трек 12 точное извлечение (доверие 1) [D59CF062]Трек 13 точное извлечение (доверие 1) [83130D85]Трек 14 точное извлечение (доверие 1) [3B7EF06D]Трек 15 точное извлечение (доверие 1) [602FAD7C]
Все треки извлечены точно
Конец отчёта

2001 - Плановая душа

Exact Audio Copy V0.99 prebeta 4 from 23. January 2008
Отчёт EAC об извлечении, выполненном 14. февраля 2012, 15:59
Беломорканал / Плановая душа
Дисковод: ASUS DRW-1814BLT Adapter: 5 ID: 0
Режим чтения : ДостоверностьИспользование точного потока : ДаОтключение кэша аудио : ДаИспользование указателей C2 : Нет
Коррекция смещения при чтении : 6Способность читать области Lead-in и Lead-out : НетЗаполнение пропущенных сэмплов тишиной : ДаУдаление блоков с тишиной в начале и конце : НетПри вычислениях CRC использовались нулевые сэмплы : ДаИнтерфейс : Установленный внешний ASPI-интерфейс
Выходной формат : Внутренние WAV-операцииФормат сэмплов : 44.100 Гц; 16 бит; стерео
TOC извлечённого CD
Трек | Старт | Длительность | Начальный сектор | Конечный сектор --------------------------------------------------------------------- 1 | 0:00.00 | 3:28.25 | 0 | 15624 2 | 3:28.25 | 3:27.21 | 15625 | 31170 3 | 6:55.46 | 4:32.38 | 31171 | 51608 4 | 11:28.09 | 3:49.34 | 51609 | 68817 5 | 15:17.43 | 5:04.27 | 68818 | 91644 6 | 20:21.70 | 3:49.44 | 91645 | 108863 7 | 24:11.39 | 3:50.15 | 108864 | 126128 8 | 28:01.54 | 3:08.21 | 126129 | 140249 9 | 31:10.00 | 5:21.41 | 140250 | 164365 10 | 36:31.41 | 4:24.39 | 164366 | 184204 11 | 40:56.05 | 3:40.43 | 184205 | 200747 12 | 44:36.48 | 4:25.74 | 200748 | 220696 13 | 49:02.47 | 3:39.68 | 220697 | 237189 14 | 52:42.40 | 3:51.16 | 237190 | 254530
Характеристики диапазона извлечения и сообщения об ошибках
Выбранный диапазон
Имя файла D:\ale2187\Беломорканал - Плановая душа.wav
Пиковый уровень 100.0 % Качество диапазона 100.0 % CRC теста 73AF8B0D CRC копии 73AF8B0D Копирование... OK
Ошибок не произошло
AccurateRip: сводка
Трек 1 нет в базе данныхТрек 2 нет в базе данныхТрек 3 нет в базе данныхТрек 4 нет в базе данныхТрек 5 нет в базе данныхТрек 6 нет в базе данныхТрек 7 нет в базе данныхТрек 8 нет в базе данныхТрек 9 нет в базе данныхТрек 10 нет в базе данныхТрек 11 нет в базе данныхТрек 12 нет в базе данныхТрек 13 нет в базе данныхТрек 14 нет в базе данных
Ни одного трека нет в базе AccurateRip
Конец отчёта

2001 - Привет, босота 2

Exact Audio Copy V0.99 prebeta 4 from 23. January 2008
Отчёт EAC об извлечении, выполненном 14. февраля 2012, 17:02
Беломорканал / Привет, босота 2
Дисковод: ASUS DRW-1814BLT Adapter: 5 ID: 0
Режим чтения : ДостоверностьИспользование точного потока : ДаОтключение кэша аудио : ДаИспользование указателей C2 : Нет
Коррекция смещения при чтении : 6Способность читать области Lead-in и Lead-out : НетЗаполнение пропущенных сэмплов тишиной : ДаУдаление блоков с тишиной в начале и конце : НетПри вычислениях CRC использовались нулевые сэмплы : ДаИнтерфейс : Установленный внешний ASPI-интерфейс
Выходной формат : Внутренние WAV-операцииФормат сэмплов : 44.100 Гц; 16 бит; стерео
TOC извлечённого CD
Трек | Старт | Длительность | Начальный сектор | Конечный сектор --------------------------------------------------------------------- 1 | 0:00.00 | 5:06.02 | 0 | 22951 2 | 5:06.02 | 3:24.73 | 22952 | 38324 3 | 8:31.00 | 7:32.70 | 38325 | 72294 4 | 16:03.70 | 5:36.16 | 72295 | 97510 5 | 21:40.11 | 3:11.64 | 97511 | 111899 6 | 24:52.00 | 5:18.69 | 111900 | 135818 7 | 30:10.69 | 4:34.24 | 135819 | 156392 8 | 34:45.18 | 5:17.27 | 156393 | 180194 9 | 40:02.45 | 5:43.00 | 180195 | 205919 10 | 45:45.45 | 5:35.23 | 205920 | 231067
Характеристики диапазона извлечения и сообщения об ошибках
Выбранный диапазон
Имя файла D:\ale2187\Беломорканал - Привет, босота 2.wav
Пиковый уровень 98.1 % Качество диапазона 99.9 % CRC теста 3633AF68 CRC копии 3633AF68 Копирование... OK
Ошибок не произошло
AccurateRip: сводка
Трек 1 нет в базе данныхТрек 2 нет в базе данныхТрек 3 нет в базе данныхТрек 4 нет в базе данныхТрек 5 нет в базе данныхТрек 6 нет в базе данныхТрек 7 нет в базе данныхТрек 8 нет в базе данныхТрек 9 нет в базе данныхТрек 10 нет в базе данных
Ни одного трека нет в базе AccurateRip
Конец отчёта

2002 - Побег (Новое-лучшее)

Exact Audio Copy V0.99 prebeta 4 from 23. January 2008
Отчёт EAC об извлечении, выполненном 15. февраля 2012, 13:55
Беломорканал / Побег
Дисковод: ASUS DRW-1814BLT Adapter: 5 ID: 0
Режим чтения : ДостоверностьИспользование точного потока : ДаОтключение кэша аудио : ДаИспользование указателей C2 : Нет
Коррекция смещения при чтении : 6Способность читать области Lead-in и Lead-out : НетЗаполнение пропущенных сэмплов тишиной : ДаУдаление блоков с тишиной в начале и конце : НетПри вычислениях CRC использовались нулевые сэмплы : ДаИнтерфейс : Установленный внешний ASPI-интерфейс
Выходной формат : Внутренние WAV-операцииФормат сэмплов : 44.100 Гц; 16 бит; стерео
TOC извлечённого CD
Трек | Старт | Длительность | Начальный сектор | Конечный сектор --------------------------------------------------------------------- 1 | 0:00.17 | 3:50.10 | 17 | 17276 2 | 3:50.27 | 3:21.29 | 17277 | 32380 3 | 7:11.56 | 4:34.04 | 32381 | 52934 4 | 11:45.60 | 3:11.42 | 52935 | 67301 5 | 14:57.27 | 3:14.73 | 67302 | 81924 6 | 18:12.25 | 5:17.20 | 81925 | 105719 7 | 23:29.45 | 4:37.56 | 105720 | 126550 8 | 28:07.26 | 3:55.58 | 126551 | 144233 9 | 32:03.09 | 7:32.52 | 144234 | 178185 10 | 39:35.61 | 3:23.51 | 178186 | 193461 11 | 42:59.37 | 3:05.60 | 193462 | 207396 12 | 46:05.22 | 4:20.70 | 207397 | 226966 13 | 50:26.17 | 5:37.07 | 226967 | 252248 14 | 56:03.24 | 6:02.40 | 252249 | 279438 15 | 62:05.64 | 4:43.72 | 279439 | 300735
Характеристики диапазона извлечения и сообщения об ошибках
Выбранный диапазон
Имя файла D:\ale2187\Беломорканал - Побег.wav
Пиковый уровень 98.8 % Качество диапазона 100.0 % CRC теста 5A1FEDF6 CRC копии 5A1FEDF6 Копирование... OK
Ошибок не произошло
AccurateRip: сводка
Трек 1 точность не определена (достоверность 1) [715A18A5], AccurateRip вернул [798BA083]Трек 2 точность не определена (достоверность 1) [AF38F054], AccurateRip вернул [4DB306D7]Трек 3 точность не определена (достоверность 1) [DBB13EB3], AccurateRip вернул [6D7D9753]Трек 4 точность не определена (достоверность 1) [F8F67D5F], AccurateRip вернул [6299FF4A]Трек 5 точность не определена (достоверность 1) [F9715AB3], AccurateRip вернул [49F1C6FA]Трек 6 точность не определена (достоверность 1) [83B3F230], AccurateRip вернул [3D8EECA8]Трек 7 точность не определена (достоверность 1) [3AAAEA26], AccurateRip вернул [3F8FFADD]Трек 8 точность не определена (достоверность 1) [65938819], AccurateRip вернул [B257DF72]Трек 9 точность не определена (достоверность 1) [96A880F4], AccurateRip вернул [E668AE90]Трек 10 точность не определена (достоверность 1) [5E8E24AC], AccurateRip вернул [20824908]Трек 11 точность не определена (достоверность 1) [5576C818], AccurateRip вернул [284AD299]Трек 12 точность не определена (достоверность 1) [4A71C4D7], AccurateRip вернул [1703871F]Трек 13 точность не определена (достоверность 1) [2CA46B88], AccurateRip вернул [AC1302CC]Трек 14 точность не определена (достоверность 1) [041B1CCB], AccurateRip вернул [6FF78FC8]Трек 15 точность не определена (достоверность 1) [0868736A], AccurateRip вернул [67DA3721]
Ни один трек не прошёл проверки на точностьВ вашей базе может быть иной вариант штамповки диска
Конец отчёта

2002 - Сын инженера и врачихи

Exact Audio Copy V0.99 prebeta 4 from 23. January 2008
Отчёт EAC об извлечении, выполненном 15. февраля 2012, 12:00
Беломорканал / Сын инженера и врачихи
Дисковод: ASUS DRW-1814BLT Adapter: 5 ID: 0
Режим чтения : ДостоверностьИспользование точного потока : ДаОтключение кэша аудио : ДаИспользование указателей C2 : Нет
Коррекция смещения при чтении : 6Способность читать области Lead-in и Lead-out : НетЗаполнение пропущенных сэмплов тишиной : ДаУдаление блоков с тишиной в начале и конце : НетПри вычислениях CRC использовались нулевые сэмплы : ДаИнтерфейс : Установленный внешний ASPI-интерфейс
Выходной формат : Внутренние WAV-операцииФормат сэмплов : 44.100 Гц; 16 бит; стерео
TOC извлечённого CD
Трек | Старт | Длительность | Начальный сектор | Конечный сектор --------------------------------------------------------------------- 1 | 0:00.00 | 3:25.19 | 0 | 15393 2 | 3:25.19 | 3:20.08 | 15394 | 30401 3 | 6:45.27 | 3:30.63 | 30402 | 46214 4 | 10:16.15 | 2:20.53 | 46215 | 56767 5 | 12:36.68 | 3:08.32 | 56768 | 70899 6 | 15:45.25 | 4:12.45 | 70900 | 89844 7 | 19:57.70 | 3:47.37 | 89845 | 106906 8 | 23:45.32 | 2:34.22 | 106907 | 118478 9 | 26:19.54 | 2:37.34 | 118479 | 130287 10 | 28:57.13 | 3:16.35 | 130288 | 145022 11 | 32:13.48 | 3:30.39 | 145023 | 160811 12 | 35:44.12 | 3:08.51 | 160812 | 174962
Характеристики диапазона извлечения и сообщения об ошибках
Выбранный диапазон
Имя файла D:\ale2187\Беломорканал - Сын инженера и врачихи.wav
Пиковый уровень 98.8 % Качество диапазона 100.0 % CRC теста 8C99F788 CRC копии 8C99F788 Копирование... OK
Ошибок не произошло
AccurateRip: сводка
Трек 1 точность не определена (достоверность 1) [C64155C0], AccurateRip вернул [005B9929]Трек 2 точность не определена (достоверность 1) [3C7F5A13], AccurateRip вернул [15D15F41]Трек 3 точность не определена (достоверность 1) [A2D8DAC2], AccurateRip вернул [D47F140A]Трек 4 точность не определена (достоверность 1) [622F780B], AccurateRip вернул [04DC481B]Трек 5 точность не определена (достоверность 1) [6DFA19A4], AccurateRip вернул [F7AE2C03]Трек 6 точность не определена (достоверность 1) [BB3DD4C5], AccurateRip вернул [DB4E02DD]Трек 7 точность не определена (достоверность 1) [680F4483], AccurateRip вернул [D11A3E89]Трек 8 точность не определена (достоверность 1) [70C98FD4], AccurateRip вернул [814E0BF0]Трек 9 точность не определена (достоверность 1) [6849F12E], AccurateRip вернул [A7330761]Трек 10 точность не определена (достоверность 1) [CFF82308], AccurateRip вернул [12D4168B]Трек 11 точность не определена (достоверность 1) [EF3E5F2D], AccurateRip вернул [367012D8]Трек 12 точность не определена (достоверность 1) [174688B6], AccurateRip вернул [0D636BE9]
Ни один трек не прошёл проверки на точностьВ вашей базе может быть иной вариант штамповки диска
Конец отчёта

2003 - Луноходы

Exact Audio Copy V0.99 prebeta 4 from 23. January 2008
Отчёт EAC об извлечении, выполненном 10. февраля 2012, 15:08
Беломорканал / Луноходы
Дисковод: ASUS DRW-1814BLT Adapter: 5 ID: 0
Режим чтения : ДостоверностьИспользование точного потока : ДаОтключение кэша аудио : ДаИспользование указателей C2 : Нет
Коррекция смещения при чтении : 6Способность читать области Lead-in и Lead-out : НетЗаполнение пропущенных сэмплов тишиной : ДаУдаление блоков с тишиной в начале и конце : НетПри вычислениях CRC использовались нулевые сэмплы : ДаИнтерфейс : Установленный внешний ASPI-интерфейс
Выходной формат : Внутренние WAV-операцииФормат сэмплов : 44.100 Гц; 16 бит; стерео
TOC извлечённого CD
Трек | Старт | Длительность | Начальный сектор | Конечный сектор --------------------------------------------------------------------- 1 | 0:00.00 | 3:29.01 | 0 | 15675 2 | 3:29.01 | 3:41.42 | 15676 | 32292 3 | 7:10.43 | 4:05.60 | 32293 | 50727 4 | 11:16.28 | 4:13.02 | 50728 | 69704 5 | 15:29.30 | 3:35.29 | 69705 | 85858 6 | 19:04.59 | 3:47.19 | 85859 | 102902 7 | 22:52.03 | 3:30.73 | 102903 | 118725 8 | 26:23.01 | 5:45.21 | 118726 | 144621 9 | 32:08.22 | 6:02.49 | 144622 | 171820 10 | 38:10.71 | 4:43.19 | 171821 | 193064 11 | 42:54.15 | 3:25.09 | 193065 | 208448 12 | 46:19.24 | 3:28.21 | 208449 | 224069 13 | 49:47.45 | 5:42.29 | 224070 | 249748 14 | 55:29.74 | 3:36.22 | 249749 | 265970 15 | 59:06.21 | 3:20.16 | 265971 | 280986 16 | 62:26.37 | 3:46.02 | 280987 | 297938 17 | 66:12.39 | 3:27.41 | 297939 | 313504 18 | 69:40.05 | 5:31.74 | 313505 | 338403
Характеристики диапазона извлечения и сообщения об ошибках
Выбранный диапазон
Имя файла D:\ale2187\Беломорканал - Луноходы.wav
Пиковый уровень 98.8 % Качество диапазона 100.0 % CRC теста D84AE49F CRC копии D84AE49F Копирование... OK
Ошибок не произошло
AccurateRip: сводка
Трек 1 нет в базе данныхТрек 2 нет в базе данныхТрек 3 нет в базе данныхТрек 4 нет в базе данныхТрек 5 нет в базе данныхТрек 6 нет в базе данныхТрек 7 нет в базе данныхТрек 8 нет в базе данныхТрек 9 нет в базе данныхТрек 10 нет в базе данныхТрек 11 нет в базе данныхТрек 12 нет в базе данныхТрек 13 нет в базе данныхТрек 14 нет в базе данныхТрек 15 нет в базе данныхТрек 16 нет в базе данныхТрек 17 нет в базе данныхТрек 18 нет в базе данных
Ни одного трека нет в базе AccurateRip
Конец отчёта

2003 - Папиросочка

Exact Audio Copy V0.99 prebeta 4 from 23. January 2008
Отчёт EAC об извлечении, выполненном 15. февраля 2012, 12:41
Беломорканал / Папиросочка
Дисковод: ASUS DRW-1814BLT Adapter: 5 ID: 0
Режим чтения : ДостоверностьИспользование точного потока : ДаОтключение кэша аудио : ДаИспользование указателей C2 : Нет
Коррекция смещения при чтении : 6Способность читать области Lead-in и Lead-out : НетЗаполнение пропущенных сэмплов тишиной : ДаУдаление блоков с тишиной в начале и конце : НетПри вычислениях CRC использовались нулевые сэмплы : ДаИнтерфейс : Установленный внешний ASPI-интерфейс
Выходной формат : Внутренние WAV-операцииФормат сэмплов : 44.100 Гц; 16 бит; стерео
TOC извлечённого CD
Трек | Старт | Длительность | Начальный сектор | Конечный сектор --------------------------------------------------------------------- 1 | 0:00.00 | 4:05.32 | 0 | 18406 2 | 4:05.32 | 3:08.08 | 18407 | 32514 3 | 7:13.40 | 4:13.09 | 32515 | 51498 4 | 11:26.49 | 5:24.49 | 51499 | 75847 5 | 16:51.23 | 4:28.31 | 75848 | 95978 6 | 21:19.54 | 3:46.59 | 95979 | 112987 7 | 25:06.38 | 4:32.36 | 112988 | 133423 8 | 29:38.74 | 3:49.64 | 133424 | 150662 9 | 33:28.63 | 3:48.65 | 150663 | 167827 10 | 37:17.53 | 4:03.62 | 167828 | 186114 11 | 41:21.40 | 5:06.65 | 186115 | 209129 12 | 46:28.30 | 4:49.18 | 209130 | 230822
Характеристики диапазона извлечения и сообщения об ошибках
Выбранный диапазон
Имя файла D:\ale2187\Беломорканал - Папиросочка.wav
Пиковый уровень 97.7 % Качество диапазона 100.0 % CRC теста 877B247D CRC копии 877B247D Копирование... OK
Ошибок не произошло
AccurateRip: сводка
Трек 1 точность не определена (достоверность 1) [9677D3A3], AccurateRip вернул [AF3F4712]Трек 2 точность не определена (достоверность 1) [72C8FE2D], AccurateRip вернул [4A39E581]Трек 3 точность не определена (достоверность 1) [347E8F5B], AccurateRip вернул [A69D8D6D]Трек 4 точность не определена (достоверность 1) [530EF96F], AccurateRip вернул [1652FBBF]Трек 5 точность не определена (достоверность 1) [A8B53A85], AccurateRip вернул [8EB00C6E]Трек 6 точность не определена (достоверность 1) [796B6AF6], AccurateRip вернул [26529903]Трек 7 точность не определена (достоверность 1) [7F2FA8C0], AccurateRip вернул [BAF4FE0D]Трек 8 точность не определена (достоверность 1) [66655BB0], AccurateRip вернул [B4C64590]Трек 9 точность не определена (достоверность 1) [2F979B3F], AccurateRip вернул [9DF7CE79]Трек 10 точность не определена (достоверность 1) [FD630EDA], AccurateRip вернул [7CC452FC]Трек 11 точность не определена (достоверность 1) [182FD549], AccurateRip вернул [49303332]Трек 12 точность не определена (достоверность 1) [EF95736F], AccurateRip вернул [8F18AFF4]
Ни один трек не прошёл проверки на точностьВ вашей базе может быть иной вариант штамповки диска
Конец отчёта

2004 - Человек из тюрьмы

Exact Audio Copy V0.99 prebeta 4 from 23. January 2008
Отчёт EAC об извлечении, выполненном 15. февраля 2012, 11:35
Беломорканал / Человек из тюрьмы
Дисковод: ASUS DRW-1814BLT Adapter: 5 ID: 0
Режим чтения : ДостоверностьИспользование точного потока : ДаОтключение кэша аудио : ДаИспользование указателей C2 : Нет
Коррекция смещения при чтении : 6Способность читать области Lead-in и Lead-out : НетЗаполнение пропущенных сэмплов тишиной : ДаУдаление блоков с тишиной в начале и конце : НетПри вычислениях CRC использовались нулевые сэмплы : ДаИнтерфейс : Установленный внешний ASPI-интерфейс
Выходной формат : Внутренние WAV-операцииФормат сэмплов : 44.100 Гц; 16 бит; стерео
TOC извлечённого CD
Трек | Старт | Длительность | Начальный сектор | Конечный сектор --------------------------------------------------------------------- 1 | 0:00.00 | 1:37.09 | 0 | 7283 2 | 1:37.09 | 3:12.56 | 7284 | 21739 3 | 4:49.65 | 4:17.01 | 21740 | 41015 4 | 9:06.66 | 4:09.16 | 41016 | 59706 5 | 13:16.07 | 4:59.00 | 59707 | 82131 6 | 18:15.07 | 4:07.14 | 82132 | 100670 7 | 22:22.21 | 4:02.03 | 100671 | 118823 8 | 26:24.24 | 2:52.58 | 118824 | 131781 9 | 29:17.07 | 4:28.44 | 131782 | 151925
Характеристики диапазона извлечения и сообщения об ошибках
Выбранный диапазон
Имя файла D:\ale2187\Беломорканал - Человек из тюрьмы.wav
Пиковый уровень 98.9 % Качество диапазона 100.0 % CRC теста 466D9F79 CRC копии 466D9F79 Копирование... OK
Ошибок не произошло
AccurateRip: сводка
Трек 1 точность не определена (достоверность 1) [167A8266], AccurateRip вернул [693C574C]Трек 2 точность не определена (достоверность 1) [AA122D25], AccurateRip вернул [3BB6115B]Трек 3 точность не определена (достоверность 1) [2E736437], AccurateRip вернул [BD88D413]Трек 4 точность не определена (достоверность 1) [62ECA93D], AccurateRip вернул [5798AF11]Трек 5 точность не определена (достоверность 1) [AAA1BCD1], AccurateRip вернул [AA505C62]Трек 6 точность не определена (достоверность 1) [007E7711], AccurateRip вернул [ED7126A7]Трек 7 точность не определена (достоверность 1) [0F716589], AccurateRip вернул [105DF320]Трек 8 точность не определена (достоверность 1) [DC75D7FA], AccurateRip вернул [1B77BA91]Трек 9 точность не определена (достоверность 1) [DCC8095C], AccurateRip вернул [A89443BF]
Ни один трек не прошёл проверки на точностьВ вашей базе может быть иной вариант штамповки диска
Конец отчёта

2006 - Блатарь

Exact Audio Copy V0.99 prebeta 4 from 23. January 2008
Отчёт EAC об извлечении, выполненном 15. февраля 2012, 15:08
Беломорканал / Блатарь
Дисковод: ASUS DRW-1814BLT Adapter: 5 ID: 0
Режим чтения : ДостоверностьИспользование точного потока : ДаОтключение кэша аудио : ДаИспользование указателей C2 : Нет
Коррекция смещения при чтении : 6Способность читать области Lead-in и Lead-out : НетЗаполнение пропущенных сэмплов тишиной : ДаУдаление блоков с тишиной в начале и конце : НетПри вычислениях CRC использовались нулевые сэмплы : ДаИнтерфейс : Установленный внешний ASPI-интерфейс
Выходной формат : Внутренние WAV-операцииФормат сэмплов : 44.100 Гц; 16 бит; стерео
TOC извлечённого CD
Трек | Старт | Длительность | Начальный сектор | Конечный сектор --------------------------------------------------------------------- 1 | 0:00.00 | 3:38.58 | 0 | 16407 2 | 3:38.58 | 3:18.34 | 16408 | 31291 3 | 6:57.17 | 5:04.38 | 31292 | 54129 4 | 12:01.55 | 4:15.63 | 54130 | 73317 5 | 16:17.43 | 3:55.50 | 73318 | 90992 6 | 20:13.18 | 4:00.65 | 90993 | 109057 7 | 24:14.08 | 4:06.51 | 109058 | 127558 8 | 28:20.59 | 3:55.59 | 127559 | 145242 9 | 32:16.43 | 3:07.53 | 145243 | 159320 10 | 35:24.21 | 3:34.20 | 159321 | 175390
Характеристики диапазона извлечения и сообщения об ошибках
Выбранный диапазон
Имя файла D:\ale2187\Беломорканал - Блатарь.wav
Пиковый уровень 97.7 % Качество диапазона 100.0 % CRC теста B7F93C23 CRC копии B7F93C23 Копирование... OK
Ошибок не произошло
AccurateRip: сводка
Трек 1 точное извлечение (доверие 1) [01EBEC37]Трек 2 точное извлечение (доверие 1) [C1A8BEA4]Трек 3 точное извлечение (доверие 1) [FA271D86]Трек 4 точное извлечение (доверие 1) [82442769]Трек 5 точное извлечение (доверие 1) [74DC5B92]Трек 6 точное извлечение (доверие 1) [B32FD04C]Трек 7 точное извлечение (доверие 1) [8E684D57]Трек 8 точное извлечение (доверие 1) [CE859D51]Трек 9 точное извлечение (доверие 1) [5566CB36]Трек 10 точное извлечение (доверие 1) [70F10A76]
Все треки извлечены точно
Конец отчёта

2007 - Не в деньгах счастье

Exact Audio Copy V0.99 prebeta 4 from 23. January 2008
Отчёт EAC об извлечении, выполненном 15. февраля 2012, 15:43
Беломорканал / Не в деньгах счастье
Дисковод: ASUS DRW-1814BLT Adapter: 5 ID: 0
Режим чтения : ДостоверностьИспользование точного потока : ДаОтключение кэша аудио : ДаИспользование указателей C2 : Нет
Коррекция смещения при чтении : 6Способность читать области Lead-in и Lead-out : НетЗаполнение пропущенных сэмплов тишиной : ДаУдаление блоков с тишиной в начале и конце : НетПри вычислениях CRC использовались нулевые сэмплы : ДаИнтерфейс : Установленный внешний ASPI-интерфейс
Выходной формат : Внутренние WAV-операцииФормат сэмплов : 44.100 Гц; 16 бит; стерео
TOC извлечённого CD
Трек | Старт | Длительность | Начальный сектор | Конечный сектор --------------------------------------------------------------------- 1 | 0:00.00 | 4:32.06 | 0 | 20405 2 | 4:32.06 | 4:03.04 | 20406 | 38634 3 | 8:35.10 | 3:56.49 | 38635 | 56383 4 | 12:31.59 | 3:49.00 | 56384 | 73558 5 | 16:20.59 | 4:52.18 | 73559 | 95476 6 | 21:13.02 | 2:48.16 | 95477 | 108092 7 | 24:01.18 | 3:33.36 | 108093 | 124103 8 | 27:34.54 | 2:57.58 | 124104 | 137436 9 | 30:32.37 | 3:49.10 | 137437 | 154621 10 | 34:21.47 | 3:47.52 | 154622 | 171698 11 | 38:09.24 | 2:55.59 | 171699 | 184882 12 | 41:05.08 | 2:58.53 | 184883 | 198285 13 | 44:03.61 | 3:17.00 | 198286 | 213060 14 | 47:20.61 | 2:51.48 | 213061 | 225933
Характеристики диапазона извлечения и сообщения об ошибках
Выбранный диапазон
Имя файла D:\ale2187\Беломорканал - Не в деньгах счастье.wav
Пиковый уровень 100.0 % Качество диапазона 100.0 % CRC теста 7875DC85 CRC копии 7875DC85 Копирование... OK
Ошибок не произошло
AccurateRip: сводка
Трек 1 точность не определена (достоверность 1) [721565C3], AccurateRip вернул [8410CD69]Трек 2 точность не определена (достоверность 1) [AB8764D0], AccurateRip вернул [49125F9B]Трек 3 точность не определена (достоверность 1) [A0B2A7CA], AccurateRip вернул [48372230]Трек 4 точность не определена (достоверность 1) [1522E9A4], AccurateRip вернул [871A0C75]Трек 5 точность не определена (достоверность 1) [52B73043], AccurateRip вернул [F3982103]Трек 6 точность не определена (достоверность 1) [689D20C2], AccurateRip вернул [E2781ECF]Трек 7 точность не определена (достоверность 1) [55812C11], AccurateRip вернул [78580D99]Трек 8 точность не определена (достоверность 1) [59447880], AccurateRip вернул [E3492741]Трек 9 точность не определена (достоверность 1) [680F5BDB], AccurateRip вернул [D6B2BD79]Трек 10 точность не определена (достоверность 1) [0336978C], AccurateRip вернул [572D56F8]Трек 11 точность не определена (достоверность 1) [A725A653], AccurateRip вернул [048A6911]Трек 12 точность не определена (достоверность 1) [C0668B13], AccurateRip вернул [30116BF9]Трек 13 точность не определена (достоверность 1) [879C1E8E], AccurateRip вернул [13E14802]Трек 14 точность не определена (достоверность 1) [E34A9A49], AccurateRip вернул [3CB365A3]
Ни один трек не прошёл проверки на точностьВ вашей базе может быть иной вариант штамповки диска
Конец отчёта

2010 - Золотой альбом

Exact Audio Copy V0.99 prebeta 4 from 23. January 2008
Отчёт EAC об извлечении, выполненном 7. марта 2012, 15:15
Беломорканал / Золотой альбом
Дисковод: ASUS DRW-1814BLT Adapter: 5 ID: 0
Режим чтения : ДостоверностьИспользование точного потока : ДаОтключение кэша аудио : ДаИспользование указателей C2 : Нет
Коррекция смещения при чтении : 6Способность читать области Lead-in и Lead-out : НетЗаполнение пропущенных сэмплов тишиной : ДаУдаление блоков с тишиной в начале и конце : НетПри вычислениях CRC использовались нулевые сэмплы : ДаИнтерфейс : Установленный внешний ASPI-интерфейс
Выходной формат : Внутренние WAV-операцииФормат сэмплов : 44.100 Гц; 16 бит; стерео
TOC извлечённого CD
Трек | Старт | Длительность | Начальный сектор | Конечный сектор --------------------------------------------------------------------- 1 | 0:00.00 | 3:38.49 | 0 | 16398 2 | 3:38.49 | 3:41.36 | 16399 | 33009 3 | 7:20.10 | 5:44.16 | 33010 | 58825 4 | 13:04.26 | 3:06.22 | 58826 | 72797 5 | 16:10.48 | 6:01.71 | 72798 | 99943 6 | 22:12.44 | 3:24.71 | 99944 | 115314 7 | 25:37.40 | 3:28.39 | 115315 | 130953 8 | 29:06.04 | 5:41.68 | 130954 | 156596 9 | 34:47.72 | 3:23.03 | 156597 | 171824 10 | 38:11.00 | 3:35.49 | 171825 | 187998 11 | 41:46.49 | 3:36.51 | 187999 | 204249 12 | 45:23.25 | 5:34.48 | 204250 | 229347 13 | 50:57.73 | 3:54.60 | 229348 | 246957 14 | 54:52.58 | 4:15.18 | 246958 | 266100 15 | 59:08.01 | 5:32.04 | 266101 | 291004 16 | 64:40.05 | 3:38.48 | 291005 | 307402 17 | 68:18.53 | 4:15.49 | 307403 | 326576 18 | 72:34.27 | 5:30.39 | 326577 | 351365
Характеристики диапазона извлечения и сообщения об ошибках
Выбранный диапазон
Имя файла D:\ale2187\Беломорканал - Золотой альбом.wav
Пиковый уровень 96.6 % Качество диапазона 100.0 % CRC теста D9D62ED1 CRC копии D9D62ED1 Копирование... OK
Ошибок не произошло
AccurateRip: сводка
Трек 1 нет в базе данныхТрек 2 нет в базе данныхТрек 3 нет в базе данныхТрек 4 нет в базе данныхТрек 5 нет в базе данныхТрек 6 нет в базе данныхТрек 7 нет в базе данныхТрек 8 нет в базе данныхТрек 9 нет в базе данныхТрек 10 нет в базе данныхТрек 11 нет в базе данныхТрек 12 нет в базе данныхТрек 13 нет в базе данныхТрек 14 нет в базе данныхТрек 15 нет в базе данныхТрек 16 нет в базе данныхТрек 17 нет в базе данныхТрек 18 нет в базе данных
Ни одного трека нет в базе AccurateRip
Конец отчёта

2010 - Последний куш

Exact Audio Copy V0.99 prebeta 4 from 23. January 2008
Отчёт EAC об извлечении, выполненном 15. февраля 2012, 16:26
Беломорканал / Последний Куш
Дисковод: ASUS DRW-1814BLT Adapter: 5 ID: 0
Режим чтения : ДостоверностьИспользование точного потока : ДаОтключение кэша аудио : ДаИспользование указателей C2 : Нет
Коррекция смещения при чтении : 6Способность читать области Lead-in и Lead-out : НетЗаполнение пропущенных сэмплов тишиной : ДаУдаление блоков с тишиной в начале и конце : НетПри вычислениях CRC использовались нулевые сэмплы : ДаИнтерфейс : Установленный внешний ASPI-интерфейс
Выходной формат : Внутренние WAV-операцииФормат сэмплов : 44.100 Гц; 16 бит; стерео
TOC извлечённого CD
Трек | Старт | Длительность | Начальный сектор | Конечный сектор --------------------------------------------------------------------- 1 | 0:00.00 | 3:37.31 | 0 | 16305 2 | 3:37.31 | 5:40.50 | 16306 | 41855 3 | 9:18.06 | 3:04.57 | 41856 | 55712 4 | 12:22.63 | 3:24.47 | 55713 | 71059 5 | 15:47.35 | 3:26.18 | 71060 | 86527 6 | 19:13.53 | 3:32.62 | 86528 | 102489 7 | 22:46.40 | 4:05.03 | 102490 | 120867 8 | 26:51.43 | 3:00.06 | 120868 | 134373 9 | 29:51.49 | 4:34.32 | 134374 | 154955 10 | 34:26.06 | 4:28.25 | 154956 | 175080 11 | 38:54.31 | 4:43.12 | 175081 | 196317
Характеристики диапазона извлечения и сообщения об ошибках
Выбранный диапазон
Имя файла D:\ale2187\Беломорканал - Последний Куш.wav
Пиковый уровень 96.6 % Качество диапазона 100.0 % CRC теста 9E2793E2 CRC копии 9E2793E2 Копирование... OK
Ошибок не произошло
AccurateRip: сводка
Трек 1 нет в базе данныхТрек 2 нет в базе данныхТрек 3 нет в базе данныхТрек 4 нет в базе данныхТрек 5 нет в базе данныхТрек 6 нет в базе данныхТрек 7 нет в базе данныхТрек 8 нет в базе данныхТрек 9 нет в базе данныхТрек 10 нет в базе данныхТрек 11 нет в базе данных
Ни одного трека нет в базе AccurateRip
Конец отчёта

Логи проверки качества

1996 - Привет, босота!

AUDIOCHECKER v2.0 beta (build 457) - by Dester - opdester@freemail.hu~~~~~~~~~~~~~~~~~~~~~~~~~~~~~~~~~~
Начато: среда, 15. 02. 2012. - 17:51.51Найдено файлов: 1
1 -===- D:\ale2187\Беломорканал - Привет, босота!.wav Заключение: этот трек - CDDA с вероятностью 100%
Завершено: среда, 15. 02. 2012. - 17:54.24 (Время операции: 0:02.33)

1997 - Козырные тузы

AUDIOCHECKER v2.0 beta (build 457) - by Dester - opdester@freemail.hu~~~~~~~~~~~~~~~~~~~~~~~~~~~~~~~~~~
Начато: вторник, 14. 02. 2012. - 18:14.45Найдено файлов: 1
1 -===- D:\ale2187\Беломорканал - Козырные тузы.wav Заключение: этот трек - CDDA с вероятностью 99%
Завершено: вторник, 14. 02. 2012. - 18:23.09 (Время операции: 0:08.23)

1998 - Волки

AUDIOCHECKER v2.0 beta (build 457) - by Dester - opdester@freemail.hu~~~~~~~~~~~~~~~~~~~~~~~~~~~~~~~~~~
Начато: среда, 15. 02. 2012. - 13:20.16Найдено файлов: 1
1 -===- D:\ale2187\Беломорканал - Волки.wav Заключение: этот трек - CDDA с вероятностью 100%
Завершено: среда, 15. 02. 2012. - 13:24.23 (Время операции: 0:04.07)

1998 - Вор

AUDIOCHECKER v2.0 beta (build 457) - by Dester - opdester@freemail.hu~~~~~~~~~~~~~~~~~~~~~~~~~~~~~~~~~~
Начато: вторник, 14. 02. 2012. - 13:22.10Найдено файлов: 1
1 -===- D:\ale2187\Беломорканал - Вор.wav Заключение: этот трек - MPEG с вероятностью 95%
Завершено: вторник, 14. 02. 2012. - 13:31.52 (Время операции: 0:09.41)

1999 - Ночь перед расстрелом

AUDIOCHECKER v2.0 beta (build 457) - by Dester - opdester@freemail.hu~~~~~~~~~~~~~~~~~~~~~~~~~~~~~~~~~~
Начато: вторник, 14. 02. 2012. - 14:13.43Найдено файлов: 1
1 -===- D:\ale2187\Беломорканал - Ночь перед расстрелом.wav Заключение: этот трек - CDDA с вероятностью 100%
Завершено: вторник, 14. 02. 2012. - 14:22.34 (Время операции: 0:08.50)

2000 - Блатная кровь

AUDIOCHECKER v2.0 beta (build 457) - by Dester - opdester@freemail.hu~~~~~~~~~~~~~~~~~~~~~~~~~~~~~~~~~~
Начато: вторник, 14. 02. 2012. - 17:38.07Найдено файлов: 1
1 -===- D:\ale2187\Беломорканал - Блатная кровь.wav Заключение: этот трек - CDDA с вероятностью 100%
Завершено: вторник, 14. 02. 2012. - 17:42.40 (Время операции: 0:04.33)

2000 - Лагеря (Избранное)

AUDIOCHECKER v2.0 beta (build 457) - by Dester - opdester@freemail.hu~~~~~~~~~~~~~~~~~~~~~~~~~~~~~~~~~~
Начато: вторник, 14. 02. 2012. - 12:07.18Найдено файлов: 1
1 -===- D:\ale2187\Беломорканал - Лагеря (Избранное).wav Заключение: этот трек - CDDA с вероятностью 100%
Завершено: вторник, 14. 02. 2012. - 12:16.35 (Время операции: 0:09.17)

2000 - Урка Мишка

AUDIOCHECKER v2.0 beta (build 457) - by Dester - opdester@freemail.hu~~~~~~~~~~~~~~~~~~~~~~~~~~~~~~~~~~
Начато: среда, 15. 02. 2012. - 10:26.37Найдено файлов: 1
1 -===- D:\ale2187\Беломорканал - Урка Мишка.wav Заключение: этот трек - CDDA с вероятностью 94%
Завершено: среда, 15. 02. 2012. - 10:30.42 (Время операции: 0:04.04)

2001 - Жиган и Жучка

AUDIOCHECKER v2.0 beta (build 457) - by Dester - opdester@freemail.hu~~~~~~~~~~~~~~~~~~~~~~~~~~~~~~~~~~
Начато: вторник, 14. 02. 2012. - 11:22.24Найдено файлов: 1
1 -===- D:\ale2187\Беломорканал - Жиган и Жучка.wav Заключение: этот трек - CDDA с вероятностью 99%
Завершено: вторник, 14. 02. 2012. - 11:26.20 (Время операции: 0:03.55)

2001 - Кресты

AUDIOCHECKER v2.0 beta (build 457) - by Dester - opdester@freemail.hu~~~~~~~~~~~~~~~~~~~~~~~~~~~~~~~~~~
Начато: среда, 15. 02. 2012. - 11:11.47Найдено файлов: 1
1 -===- D:\ale2187\Беломорканал - Кресты.wav Заключение: этот трек - CDDA с вероятностью 100%
Завершено: среда, 15. 02. 2012. - 11:16.13 (Время операции: 0:04.26)

2001 - Легенды Русского шансона (том28)

AUDIOCHECKER v2.0 beta (build 457) - by Dester - opdester@freemail.hu~~~~~~~~~~~~~~~~~~~~~~~~~~~~~~~~~~
Начато: среда, 07. 03. 2012. - 17:00.56Найдено файлов: 1
1 -===- D:\ale2187\Беломорканал - Легенды русского шансона (том28).wav Заключение: этот трек - CDDA с вероятностью 100%
Завершено: среда, 07. 03. 2012. - 17:09.44 (Время операции: 0:08.48)

2001 - Плановая душа

AUDIOCHECKER v2.0 beta (build 457) - by Dester - opdester@freemail.hu~~~~~~~~~~~~~~~~~~~~~~~~~~~~~~~~~~
Начато: вторник, 14. 02. 2012. - 15:59.48Найдено файлов: 1
1 -===- D:\ale2187\Беломорканал - Плановая душа.wav Заключение: этот трек - MPEG с вероятностью 95%
Завершено: вторник, 14. 02. 2012. - 16:04.41 (Время операции: 0:04.53)

2001 - Привет, босота 2

AUDIOCHECKER v2.0 beta (build 457) - by Dester - opdester@freemail.hu~~~~~~~~~~~~~~~~~~~~~~~~~~~~~~~~~~
Начато: вторник, 14. 02. 2012. - 17:03.03Найдено файлов: 1
1 -===- D:\ale2187\Беломорканал - Привет, босота 2.wav Заключение: этот трек - CDDA с вероятностью 100%
Завершено: вторник, 14. 02. 2012. - 17:10.44 (Время операции: 0:07.41)

2002 - Побег (Новое-лучшее)

AUDIOCHECKER v2.0 beta (build 457) - by Dester - opdester@freemail.hu~~~~~~~~~~~~~~~~~~~~~~~~~~~~~~~~~~
Начато: среда, 15. 02. 2012. - 13:57.54Найдено файлов: 1
1 -===- D:\ale2187\Беломорканал - Побег.wav Заключение: этот трек - CDDA с вероятностью 100%
Завершено: среда, 15. 02. 2012. - 14:04.48 (Время операции: 0:06.54)

2002 - Сын инженера и врачихи

AUDIOCHECKER v2.0 beta (build 457) - by Dester - opdester@freemail.hu~~~~~~~~~~~~~~~~~~~~~~~~~~~~~~~~~~
Начато: четверг, 15. 11. 2012. - 13:25.54Найдено файлов: 1
1 -===- D:\ale2187\Беломорканал - Сын инженера и врачихи.wav Заключение: этот трек - CDDA с вероятностью 100%
Завершено: четверг, 15. 11. 2012. - 13:28.12 (Время операции: 0:02.17)

2003 - Луноходы

AUDIOCHECKER v2.0 beta (build 457) - by Dester - opdester@freemail.hu~~~~~~~~~~~~~~~~~~~~~~~~~~~~~~~~~~
Начато: пятница, 10. 02. 2012. - 15:17.50Найдено файлов: 1
1 -===- D:\ale2187\Беломорканал - Луноходы.wav Заключение: этот трек - CDDA с вероятностью 100%
Завершено: пятница, 10. 02. 2012. - 15:23.41 (Время операции: 0:05.51)

2003 - Папиросочка

AUDIOCHECKER v2.0 beta (build 457) - by Dester - opdester@freemail.hu~~~~~~~~~~~~~~~~~~~~~~~~~~~~~~~~~~
Начато: четверг, 15. 11. 2012. - 13:40.26Найдено файлов: 1
1 -===- D:\ale2187\Беломорканал - Папиросочка.wav Заключение: этот трек - CDDA с вероятностью 100%
Завершено: четверг, 15. 11. 2012. - 13:43.20 (Время операции: 0:02.54)

2004 - Человек из тюрьмы

AUDIOCHECKER v2.0 beta (build 457) - by Dester - opdester@freemail.hu~~~~~~~~~~~~~~~~~~~~~~~~~~~~~~~~~~
Начато: среда, 15. 02. 2012. - 11:39.35Найдено файлов: 1
1 -===- D:\ale2187\Беломорканал - Человек из тюрьмы.wav Заключение: этот трек - CDDA с вероятностью 100%
Завершено: среда, 15. 02. 2012. - 11:42.37 (Время операции: 0:03.01)

2006 - Блатарь

AUDIOCHECKER v2.0 beta (build 457) - by Dester - opdester@freemail.hu~~~~~~~~~~~~~~~~~~~~~~~~~~~~~~~~~~
Начато: среда, 15. 02. 2012. - 15:10.52Найдено файлов: 1
1 -===- D:\ale2187\Беломорканал - Блатарь.wav Заключение: этот трек - CDDA с вероятностью 99%
Завершено: среда, 15. 02. 2012. - 15:13.47 (Время операции: 0:02.54)

2007 - Не в деньгах счастье

AUDIOCHECKER v2.0 beta (build 457) - by Dester - opdester@freemail.hu~~~~~~~~~~~~~~~~~~~~~~~~~~~~~~~~~~
Начато: среда, 15. 02. 2012. - 15:50.07Найдено файлов: 1
1 -===- D:\ale2187\Беломорканал - Не в деньгах счастье.wav Заключение: этот трек - MPEG с вероятностью 95%
Завершено: среда, 15. 02. 2012. - 15:52.40 (Время операции: 0:02.32)

2010 - Золотой альбом

AUDIOCHECKER v2.0 beta (build 457) - by Dester - opdester@freemail.hu~~~~~~~~~~~~~~~~~~~~~~~~~~~~~~~~~~
Начато: среда, 07. 03. 2012. - 16:41.08Найдено файлов: 1
1 -===- D:\ale2187\Беломорканал - Золотой альбом.wav Заключение: этот трек - CDDA с вероятностью 100%
Завершено: среда, 07. 03. 2012. - 16:51.31 (Время операции: 0:10.23)

2010 - Последний куш

AUDIOCHECKER v2.0 beta (build 457) - by Dester - opdester@freemail.hu~~~~~~~~~~~~~~~~~~~~~~~~~~~~~~~~~~
Начато: среда, 15. 02. 2012. - 16:29.41Найдено файлов: 1
1 -===- D:\ale2187\Беломорканал - Последний Куш.wav Заключение: этот трек - CDDA с вероятностью 100%
Завершено: среда, 15. 02. 2012. - 16:33.08 (Время операции: 0:03.26)

Скриншоты спектра частот

1996 - Привет, босота!

1997 - Козырные тузы

1998 - Волки

1998 - Вор

1999 - Ночь перед расстрелом

2000 - Блатная кровь

2000 - Лагеря (Избранное)

2000 - Урка Мишка

2001 - Жиган и Жучка

2001 - Кресты

2001 - Легенды Русского шансона (том28)

2001 - Плановая душа

2001 - Привет, босота 2

2002 - Побег (Новое-лучшее)

2002 - Сын инженера и врачихи

2003 - Луноходы

2003 - Папиросочка

2004 - Человек из тюрьмы

2006 - Блатарь

2007 - Не в деньгах счастье

2010 - Золотой альбом

2010 - Последний куш

[Цитировать]



Показать сообщения:    

Текущее время: 11-Дек 01:25

Часовой пояс: UTC + 3


Вы не можете начинать темы
Вы не можете отвечать на сообщения
Вы не можете редактировать свои сообщения
Вы не можете удалять свои сообщения
Вы не можете голосовать в опросах
Вы не можете прикреплять файлы к сообщениям
Вы не можете скачивать файлы

!ВНИМАНИЕ!
Сайт не предоставляет электронные версии произведений, а занимается лишь коллекционированием и каталогизацией ссылок, присылаемых и публикуемых на форуме нашими читателями. Если вы являетесь правообладателем какого-либо представленного материала и не желаете, чтобы ссылка на него находилась в нашем каталоге, свяжитесь с нами, и мы незамедлительно удалим ее. Файлы для обмена на трекере предоставлены пользователями сайта, и администрация не несет ответственности за их содержание. Просьба не заливать файлы, защищенные авторскими правами, а также файлы нелегального содержания!