[ Сегодня идет свободное скачивание без начисления Download ]


Статистика раздачи
Нет
 
   
 
Top  
 
 
-Храбрая сердцем / Brave
«Change your fate.»
- Русское название: Храбрая сердцем
Оригинальное название: Brave
Год выпуска: 2012
Производство: Pixar Animation Studios / Walt Disney Pictures [США]
Жанр: Мультфильм, фэнтези, комедия, приключения, семейный
Перевод: Дублированный [НТВ+]
Субтитры: Вшитые отключаемые (PGS)
Язык субтитров: Английский (полные, комментарии)
Описание фильма:
Испокон веков мифы и легенды окутывают загадочной пеленой живописные отроги Шотландских гор. Искусной лучнице Мериде приходится выбирать свой путь в жизни самостоятельно, и однажды она отказывается следовать древним традициям королевства, бросая вызов могущественным шотландским кланам и их предводителям: нескладному лорду МакГаффину, угрюмому лорду Макинтошу и сварливому лорду Дингволлу. Неосторожные поступки Мериды грозят повергнуть королевство в хаос, и тогда она отправляется за советом к эксцентричной отшельнице, которая вместо помощи накладывает на Мериду опасное заклятье.

Режиссер: Марк Эндрюс, Бренда Чэпман, Стив Пурселл
Продюсер: Кэтерин Сарафьян, Пит Доктер, Мэри Элис Драмм
Актеры: Келли Макдоналд, Эмма Томпсон, Билли Коннолли, Джули Уолтерс, Робби Колтрейн, Кевин МакКидд, Крэйг Фергюсон, Сэлли Кингхорн, Эйлид Фрайзер, Пейджи Баркер
Дата мировой премьеры: 10 июня 2012
Дата российской премьеры: 21 июня 2012, «WDSSPR»
Дата выхода DVD релиза: 20 ноября 2012, «Уолт Дисней Компани СНГ»
Дата выхода Blu-Ray релиза: 20 ноября 2012, «Уолт Дисней Компани СНГ»

Продолжительность: 01:34:12
Качество видео: BDRip
Видео: MPEG4_AVC/H.264, 1920x1080, ~10000 kbps, Bit/Pixel: 0.201
Аудио 1: AC3 5.1, 384 kbps [Русский - дублированный]
Аудио 2: AC3 5.1, 640 kbps [Английский - оригинал]
Аудио 3: AC3 2.0, 320 kbps [Английский - комментарии]

MediaInfo…

Полное имя : D:\Храбрая.сердцем-Brave.(2012).[1080p].BDRip.[3D].mkv
Формат : Matroska
Версия формата : Version 2
Размер файла : 7,44 Гбайт
Продолжительность : 1 ч. 34 м.
Общий поток : 11,3 Мбит/сек
Дата кодирования : UTC 2012-11-03 00:03:44
Программа кодирования : mkvmerge v5.7.0 ('The Whirlwind') built on Aug 7 2012 14:11:40
Библиотека кодирования : libebml v1.2.3 + libmatroska v1.3.0
Видео
Идентификатор : 1
Формат : AVC
Формат/Информация : Advanced Video Codec
Профиль формата : High@L4.1
Параметр CABAC формата : Да
Параметр ReFrames формата : 4 кадра
Идентификатор кодека : V_MPEG4/ISO/AVC
Продолжительность : 1 ч. 34 м.
Битрейт : 10000 Кбит/сек
Ширина : 1920 пикселей
Высота : 1080 пикселей
Соотношение сторон : 16:9
Режим частоты кадров : Постоянный
Частота кадров : 23,976 кадра/сек
Цветовое пространство : YUV
Субдискретизация насыщенности : 4:2:0
Битовая глубина : 8 бит
Тип развёртки : Прогрессивная
Бит/(Пиксели*Кадры) : 0.201
Размер потока : 6,41 Гбайт (86%)
Библиотека кодирования : x264 core 119 r2106 07efeb4
Настройки программы : cabac=1 / ref=3 / deblock=1:0:0 / analyse=0x3:0x113 / me=hex / subme=7 / psy=1 / psy_rd=1.00:0.00 / mixed_ref=1 / me_range=16 / chroma_me=1 / trellis=1 / 8x8dct=1 / cqm=0 / deadzone=21,11 / fast_pskip=1 / chroma_qp_offset=-2 / threads=12 / sliced_threads=0 / nr=0 / decimate=1 / interlaced=0 / bluray_compat=0 / constrained_intra=0 / bframes=3 / b_pyramid=2 / b_adapt=1 / b_bias=0 / direct=1 / weightb=1 / open_gop=0 / weightp=2 / keyint=250 / keyint_min=23 / scenecut=40 / intra_refresh=0 / rc_lookahead=40 / rc=abr / mbtree=1 / bitrate=10000 / ratetol=1.0 / qcomp=0.60 / qpmin=0 / qpmax=69 / qpstep=4 / ip_ratio=1.40 / aq=1:1.00
Язык : English
Default : Да
Forced : Нет
Аудио #1
Идентификатор : 2
Формат : AC-3
Формат/Информация : Audio Coding 3
Расширение режима : CM (complete main)
Параметр Endianness формата : Big
Идентификатор кодека : A_AC3
Продолжительность : 1 ч. 34 м.
Вид битрейта : Постоянный
Битрейт : 384 Кбит/сек
Каналы : 6 каналов
Расположение каналов : Front: L C R, Side: L R, LFE
Частота : 48,0 КГц
Битовая глубина : 16 бит
Метод сжатия : С потерями
Задержка видео : 42 мс.
Размер потока : 259 Мбайт (3%)
Заголовок : Дублированный (НТВ+)
Язык : Russian
Default : Да
Forced : Нет
Аудио #2
Идентификатор : 3
Формат : AC-3
Формат/Информация : Audio Coding 3
Расширение режима : CM (complete main)
Параметр Endianness формата : Big
Идентификатор кодека : A_AC3
Продолжительность : 1 ч. 34 м.
Вид битрейта : Постоянный
Битрейт : 640 Кбит/сек
Каналы : 6 каналов
Расположение каналов : Front: L C R, Side: L R, LFE
Частота : 48,0 КГц
Битовая глубина : 16 бит
Метод сжатия : С потерями
Размер потока : 431 Мбайт (6%)
Заголовок : Оригинал
Язык : English
Default : Нет
Forced : Нет
Аудио #3
Идентификатор : 4
Формат : AC-3
Формат/Информация : Audio Coding 3
Расширение режима : CM (complete main)
Параметр Endianness формата : Big
Идентификатор кодека : A_AC3
Продолжительность : 1 ч. 34 м.
Вид битрейта : Постоянный
Битрейт : 320 Кбит/сек
Каналы : 2 канала
Расположение каналов : Front: L R
Частота : 48,0 КГц
Битовая глубина : 16 бит
Метод сжатия : С потерями
Размер потока : 216 Мбайт (3%)
Заголовок : commentary
Язык : English
Default : Нет
Forced : Нет
Текст #1
Идентификатор : 5
Формат : PGS
Режим смешивания : zlib
Идентификатор кодека : S_HDMV/PGS
Идентификатор кодека/Информация : The same subtitle format used on BDs/HD-DVDs
Язык : English
Default : Нет
Forced : Нет
Текст #2
Идентификатор : 6
Формат : PGS
Режим смешивания : zlib
Идентификатор кодека : S_HDMV/PGS
Идентификатор кодека/Информация : The same subtitle format used on BDs/HD-DVDs
Заголовок : commentary
Язык : English
Default : Нет
Forced : Нет
Меню
00:00:00.000 : en:00:00:00.000
00:04:22.846 : en:00:04:22.846
00:09:17.432 : en:00:09:17.432
00:12:53.356 : en:00:12:53.356
00:14:00.256 : en:00:14:00.256
00:16:10.469 : en:00:16:10.469
00:17:36.681 : en:00:17:36.681
00:22:55.791 : en:00:22:55.791
00:27:22.891 : en:00:27:22.891
00:28:51.229 : en:00:28:51.229
00:30:54.853 : en:00:30:54.853
00:34:00.372 : en:00:34:00.372
00:36:03.495 : en:00:36:03.495
00:39:06.928 : en:00:39:06.928
00:41:55.096 : en:00:41:55.096
00:43:27.980 : en:00:43:27.980
00:47:05.740 : en:00:47:05.740
00:48:22.358 : en:00:48:22.358
00:51:04.061 : en:00:51:04.061
00:52:33.859 : en:00:52:33.859
00:54:01.155 : en:00:54:01.155
00:54:45.699 : en:00:54:45.699
00:57:30.864 : en:00:57:30.864
00:59:00.162 : en:00:59:00.162
01:02:48.181 : en:01:02:48.181
01:03:27.387 : en:01:03:27.387
01:09:57.735 : en:01:09:57.735
01:10:37.275 : en:01:10:37.275
01:12:35.726 : en:01:12:35.726
01:13:39.498 : en:01:13:39.498
01:15:35.489 : en:01:15:35.489
01:16:59.073 : en:01:16:59.073
01:17:37.111 : en:01:17:37.111
01:19:48.200 : en:01:19:48.200
01:23:16.783 : en:01:23:16.783
01:24:38.657 : en:01:24:38.657
01:32:52.567 : en:01:32:52.567

[Цитировать]



Показать сообщения:    

Текущее время: 10-Дек 02:15

Часовой пояс: UTC + 3


Вы не можете начинать темы
Вы не можете отвечать на сообщения
Вы не можете редактировать свои сообщения
Вы не можете удалять свои сообщения
Вы не можете голосовать в опросах
Вы не можете прикреплять файлы к сообщениям
Вы не можете скачивать файлы

!ВНИМАНИЕ!
Сайт не предоставляет электронные версии произведений, а занимается лишь коллекционированием и каталогизацией ссылок, присылаемых и публикуемых на форуме нашими читателями. Если вы являетесь правообладателем какого-либо представленного материала и не желаете, чтобы ссылка на него находилась в нашем каталоге, свяжитесь с нами, и мы незамедлительно удалим ее. Файлы для обмена на трекере предоставлены пользователями сайта, и администрация не несет ответственности за их содержание. Просьба не заливать файлы, защищенные авторскими правами, а также файлы нелегального содержания!