[ Сегодня идет свободное скачивание без начисления Download ]


Статистика раздачи
Нет
 
   
 
Top  
 
 
Просто Пек / Just Peck
Страна: США
Студия: The Jerry Leider Company
Жанр: комедия, семейный
Год выпуска: 2009
Продолжительность: 01:29:01
Перевод: Профессиональный (многоголосый)
Субтитры: нет
Оригинальная аудиодорожка: английский
Режиссер: Майкл Никлз / Michael A. Nickles
В ролях: Марсия Кросс, Бри Ларсон, Кейр Гилкрист, Адам Аркин, Мартин Спэньер, Хейли Рэмм, Камрин Менхейм, Октавия Спенсер, Тия Сиркар, Молли Хэйгэн...
Описание: Трудно пользоваться успехом в школе, когда в 15 лет ты выглядишь на 10. Бедняга Пек все время чувствует себя идиотом: учителя выставляют его на посмешище, одноклассники издеваются, а с родителями совсем беда — мало того, что они зануды, так еще и сына заставляют подписывать с ними контракты на все внеклассные мероприятия. Если бы не приятель Джейджер (единственный нормальный человек), жизнь Пека была бы сущим адом. Но после знакомства с Эмили, самой красивой старшеклассницей, жизнь казалось, начинает налаживаться.
Родители же Пека никак не хотят успокоиться и записывают его в Клуб Испытателей, — кошмар всего города. Необходимо срочно принять какие-то экстренные меры… И тут Пеку приходит в голову гениальная мысль — разработать смелый научный проект, который поможет ему примириться с родителями, поразить учителей и, может быть, даже завоевать сердце Эмили. Но даже сам Пек, оказывается, был не готов к тому, КАК окружающие примут его аппарат TSAT 3000…
[kp]412974[/kp] [imdb]tt1230387[/imdb]
Тип релиза: DVDRip, источник: DVD5 R5 лицензия
Контейнер: AVI
Видео: 704x400 (16:9), 25.000 fps, XVID ~2074 kbps avg, 0.295 bit/pixel
Аудио : Русский, 48 kHz, AC3, 6 ch, 256.00 kbps Constant DUB
Аудио 2: Английский, 48 kHz, AC3, 6 ch, 256.00 kbps Constant (отдельным файлом)

MediaInfo

General
Complete name : Prosto.Pek.2009.P.DVDRip.avi
Format : AVI
Format/Info : Audio Video Interleave
File size : 1.45 GiB
Duration : 1h 29mn
Overall bit rate : 2 339 Kbps
Writing application : VirtualDubMod 1.5.10.3 (build 2550/release)
Writing library : VirtualDubMod build 2550/release
Video
ID : 0
Format : MPEG-4 Visual
Format profile : Advanced Simple@L5
Format settings, BVOP : Yes
Format settings, QPel : No
Format settings, GMC : No warppoints
Format settings, Matrix : Custom
Codec ID : XVID
Codec ID/Hint : XviD
Duration : 1h 29mn
Bit rate : 2 074 Kbps
Width : 704 pixels
Height : 400 pixels
Display aspect ratio : 16:9
Frame rate : 25.000 fps
Color space : YUV
Chroma subsampling : 4:2:0
Bit depth : 8 bits
Scan type : Progressive
Bits/(Pixel*Frame) : 0.295
Stream size : 1.29 GiB (89%)
Writing library : XviD 1.2.1 (UTC 2008-12-04)
Audio
ID : 1
Format : AC-3
Format/Info : Audio Coding 3
Mode extension : CM (complete main)
Codec ID : 2000
Duration : 1h 29mn
Bit rate mode : Constant
Bit rate : 256 Kbps
Channel(s) : 6 channels
Channel positions : Front: L C R, Side: L R, LFE
Sampling rate : 48.0 KHz
Bit depth : 16 bits
Stream size : 163 MiB (11%)
Alignment : Split accross interleaves
Interleave, duration : 40 ms (1.00 video frame)
Interleave, preload duration : 500 ms

[Цитировать]



Показать сообщения:    

Текущее время: 10-Дек 21:36

Часовой пояс: UTC + 3


Вы не можете начинать темы
Вы не можете отвечать на сообщения
Вы не можете редактировать свои сообщения
Вы не можете удалять свои сообщения
Вы не можете голосовать в опросах
Вы не можете прикреплять файлы к сообщениям
Вы не можете скачивать файлы

!ВНИМАНИЕ!
Сайт не предоставляет электронные версии произведений, а занимается лишь коллекционированием и каталогизацией ссылок, присылаемых и публикуемых на форуме нашими читателями. Если вы являетесь правообладателем какого-либо представленного материала и не желаете, чтобы ссылка на него находилась в нашем каталоге, свяжитесь с нами, и мы незамедлительно удалим ее. Файлы для обмена на трекере предоставлены пользователями сайта, и администрация не несет ответственности за их содержание. Просьба не заливать файлы, защищенные авторскими правами, а также файлы нелегального содержания!