[ Сегодня идет свободное скачивание без начисления Download ]


Статистика раздачи
Нет
 
   
 
Top  
 
 
-Восемь с половиной долларов - Год выпуска: 1999
Жанр: Комедия, Криминал
Описание фильма:
Богемный режиссер рекламных роликов, известный Дон Жуан Гера Кремов, серьезно «попал». Однажды Гере попадают в руки 300 тысяч долларов! На эти деньги он должен снять кинематографический шедевр для опасного мафиози.
К утру ситуация осложняется: оказывается, что в состоянии сильного алкогольного опьянения Гера случайно прокутил половину денег, к тому же в его постели девушка — возлюбленная того самого мафиози. И девушку, и деньги надо возвращать. Или снять фильм на оставшуюся половину баксов с девушкой в главной роли. Братки ждут. Но тут в ход событий вмешивается другой мафиози — Спартак и его жена — известная актриса, влюбленная в Геру. Ему необходимо обдурить мафию и остаться в живых…-Режиссер: Григорий Константинопольский
Актеры: Иван Охлобыстин, Фёдор Бондарчук, Олеся Поташинская, Владимир Меньшов, Наталья Андрейченко, Владимир Шаинский, Игорь Верник, Вячеслав Разбегаев, Андрей И, Ангелина Чернова
Продолжительность: 01:34:56
Качество видео: HDTVRip-
Возраст 18+ - зрителям, достигшим 18 лет
Дата российской премьеры: 9 июня 2011, «Art Pictures»
Дата выхода DVD релиза: 21 февраля 2012, «Мистерия Звука»-Видеокодек: MPEG-4 AVC/H.264
Битрейт видео: ~11,4 Мбит/сек
Размер кадра: 1920x1080
Аудиокодек: AC3 2.0
Битрейт аудио: 448 Кбит/сек-

Media info:

Общее
Уникальный идентификатор : 231817814225003417999469285858271680727 (0xAE667CAC6A0E4CBF87B9F0E49541D8D7)
Полное имя : F:\films\Восемь_с_половиной_долларов_3D.mkv
Формат : Matroska
Версия формата : Version 2
Размер файла : 8,00 Гбайт
Продолжительность : 1 ч. 34 м.
Общий поток : 12,1 Мбит/сек
Название фильма : Восемь_с_половиной_долларов_3D
Дата кодирования : UTC 2013-10-26 10:04:27
Программа кодирования : mkvmerge v5.7.0 ('The Whirlwind') built on Aug 7 2012 14:11:40
Библиотека кодирования : libebml v1.2.3 + libmatroska v1.3.0
Видео
Идентификатор : 1
Формат : AVC
Формат/Информация : Advanced Video Codec
Профиль формата : High@L4.1
Параметр CABAC формата : Да
Параметр ReFrames формата : 4 кадра
Идентификатор кодека : V_MPEG4/ISO/AVC
Продолжительность : 1 ч. 34 м.
Битрейт : 11,4 Мбит/сек
Ширина : 1920 пикселей
Высота : 1080 пикселей
Соотношение сторон : 16:9
Режим частоты кадров : Постоянный
Частота кадров : 25,000 кадров/сек
Цветовое пространство : YUV
Субдискретизация насыщенности : 4:2:0
Битовая глубина : 8 бит
Тип развёртки : Прогрессивная
Бит/(Пиксели*Кадры) : 0.219
Размер потока : 7,54 Гбайт (94%)
Заголовок : rip by I/N
Библиотека кодирования : x264 core 128 r2216M 198a7ea
Настройки программы : cabac=1 / ref=4 / deblock=1:-1:-1 / analyse=0x3:0x133 / me=umh / subme=10 / psy=1 / psy_rd=1.00:0.15 / mixed_ref=1 / me_range=32 / chroma_me=1 / trellis=2 / 8x8dct=1 / cqm=0 / deadzone=21,11 / fast_pskip=1 / chroma_qp_offset=-3 / threads=8 / lookahead_threads=1 / sliced_threads=0 / nr=0 / decimate=1 / interlaced=0 / bluray_compat=0 / constrained_intra=0 / bframes=6 / b_pyramid=2 / b_adapt=2 / b_bias=0 / direct=3 / weightb=1 / open_gop=0 / weightp=2 / keyint=250 / keyint_min=25 / scenecut=40 / intra_refresh=0 / rc_lookahead=60 / rc=crf / mbtree=1 / crf=16.0 / qcomp=0.60 / qpmin=0 / qpmax=69 / qpstep=4 / vbv_maxrate=40000 / vbv_bufsize=30000 / crf_max=30.0 / nal_hrd=none / ip_ratio=1.40 / aq=1:1.00
Default : Да
Forced : Нет
Аудио
Идентификатор : 2
Формат : AC-3
Формат/Информация : Audio Coding 3
Расширение режима : CM (complete main)
Параметр Endianness формата : Big
Идентификатор кодека : A_AC3
Продолжительность : 1 ч. 34 м.
Вид битрейта : Постоянный
Битрейт : 448 Кбит/сек
Каналы : 2 канала
Расположение каналов : Front: L R
Частота : 48,0 КГц
Битовая глубина : 16 бит
Метод сжатия : С потерями
Задержка видео : 2 мс.
Размер потока : 304 Мбайт (4%)
Язык : Russian
Default : Да
Forced : Да
Проверено на встроенном плейере ТВ Samsung-D6500

[Цитировать]



Показать сообщения:    

Текущее время: 10-Дек 00:19

Часовой пояс: UTC + 3


Вы не можете начинать темы
Вы не можете отвечать на сообщения
Вы не можете редактировать свои сообщения
Вы не можете удалять свои сообщения
Вы не можете голосовать в опросах
Вы не можете прикреплять файлы к сообщениям
Вы не можете скачивать файлы

!ВНИМАНИЕ!
Сайт не предоставляет электронные версии произведений, а занимается лишь коллекционированием и каталогизацией ссылок, присылаемых и публикуемых на форуме нашими читателями. Если вы являетесь правообладателем какого-либо представленного материала и не желаете, чтобы ссылка на него находилась в нашем каталоге, свяжитесь с нами, и мы незамедлительно удалим ее. Файлы для обмена на трекере предоставлены пользователями сайта, и администрация не несет ответственности за их содержание. Просьба не заливать файлы, защищенные авторскими правами, а также файлы нелегального содержания!