[ Сегодня идет свободное скачивание без начисления Download ]


Статистика раздачи
Нет
 
   
 
Top  
 
 
-Сезон убийц / Killing Season - Год выпуска: 2013
Производство: Бельгия, США, Millennium Films
Жанр: Боевик, Триллер
Перевод: Многоголосый закадровый, профессиональный
Субтитры: Вшитые отключаемые
Язык субтитров: Русский
Дата мировой премьеры: 29 июня 2013
Дата российской премьеры: 5 декабря 2013, «Top Film Distribution»
Дата выхода DVD релиза: 21 января 2014, «Lizard Cinema Trade»
Режиссер: Марк Стивен Джонсон
Актеры: Джон Траволта, Роберт Де Ниро, Майло Вентимилья, Элизабет Олин, Диана Любенова, Стефан Штерев
Описание фильма:
История о ветеранах войны в Боснии — американце и сербе, которые, спустя много лет после событий в Европе, устраивают свою личную Третью мировую войну, пытаясь свести счеты.

Продолжительность: 01:30:44
Качество видео: BDRip | исх. Killing Season 2013 1080p Blu-Ray AVC TrueHD 5.1-PublicHD
Видеокодек: MPEG-4 AVC/H.264
Битрейт видео: 1712 kb/s
Размер кадра: 1024x576, 23.976 fps
Аудио #1: 48 kHz, AC3 Dolby Digital, 2/0 (L,R) ch, ~192.00 kbps avg (Русский)
Аудио #2: 48 kHz, AC3 Dolby Digital, 3/2 (L,C,R,l,r) + LFE ch, 384.00 kbps (Английский) / (Оригинал)

MI

Общее
Уникальный идентификатор                 : 183155040783877952940139541182361866966 (0x89CA60B44C06EE62999F17E7F96792D6)
Полное имя                               : D:\НЕ УДАЛЯТЬ!!!\Sezon.ubistv.2013.x264.BDRip.NNM-CLUB.mkv
Формат                                   : Matroska
Версия формата                           : Version 2
Размер файла                             : 1,45 Гбайт
Продолжительность                        : 1 ч. 30 м.
Общий поток                              : 2290 Кбит/сек
Название фильма                          : Sezon.ubistv 2013 BDRip NNM-CLUB
Дата кодирования                         : UTC 2013-12-26 10:21:49
Программа кодирования                    : mkvmerge v4.9.1 ('Ich will') сборка от Jul 11 2011 23:53:15
Библиотека кодирования                   : libebml v1.2.1 + libmatroska v1.1.1
Видео
Идентификатор                            : 1
Формат                                   : AVC
Формат/Информация                        : Advanced Video Codec
Профиль формата                          : [url=mailto:High@L4.1]High@L4.1[/url]
Параметр CABAC формата                   : Да
Параметр ReFrames формата                : 13 кадров
Идентификатор кодека                     : V_MPEG4/ISO/AVC
Продолжительность                        : 1 ч. 30 м.
Битрейт                                  : 1712 Кбит/сек
Ширина                                   : 1024 пикселя
Высота                                   : 576 пикселей
Соотношение сторон                       : 16:9
Режим частоты кадров                     : Постоянный
Частота кадров                           : 23,976 кадра/сек
Цветовое пространство                    : YUV
Субдискретизация насыщенности            : 4:2:0
Битовая глубина                          : 8 бит
Тип развёртки                            : Прогрессивная
Бит/(Пиксели*Кадры)                      : 0.121
Размер потока                            : 1,06 Гбайт (73%)
Библиотека кодирования                   : x264 core 133 r2334 a3ac64b
Настройки программы                      : cabac=1 / ref=13 / deblock=1:-2:-1 / analyse=0x3:0x113 / me=umh / subme=10 / psy=1 / psy_rd=1.10:0.10 / mixed_ref=1 / me_range=32 / chroma_me=1 / trellis=2 / 8x8dct=1 / cqm=0 / deadzone=21,11 / fast_pskip=1 / chroma_qp_offset=-3 / threads=12 / lookahead_threads=3 / sliced_threads=0 / nr=0 / decimate=0 / interlaced=0 / bluray_compat=0 / constrained_intra=0 / bframes=13 / b_pyramid=2 / b_adapt=2 / b_bias=0 / direct=3 / weightb=1 / open_gop=0 / weightp=2 / keyint=250 / keyint_min=23 / scenecut=40 / intra_refresh=0 / rc_lookahead=80 / rc=2pass / mbtree=0 / bitrate=1712 / ratetol=1.0 / qcomp=0.70 / qpmin=0 / qpmax=69 / qpstep=4 / cplxblur=20.0 / qblur=0.5 / vbv_maxrate=22000 / vbv_bufsize=24000 / nal_hrd=none / ip_ratio=1.40 / pb_ratio=1.30 / aq=2:0.90 / zones=123994,130536,q=35
Язык                                     : English
Default                                  : Да
Forced                                   : Нет
Основные цвета                           : BT.709
Характеристики трансфера                 : BT.709
Коэффициенты матрицы                     : BT.709
Аудио #1
Идентификатор                            : 2
Формат                                   : AC-3
Формат/Информация                        : Audio Coding 3
Расширение режима                        : CM (complete main)
Параметр Endianness формата              : Big
Идентификатор кодека                     : A_AC3
Продолжительность                        : 1 ч. 30 м.
Вид битрейта                             : Постоянный
Битрейт                                  : 192 Кбит/сек
Каналы                                   : 2 канала
Расположение каналов                     : Front: L R
Частота                                  : 48,0 КГц
Битовая глубина                          : 16 бит
Метод сжатия                             : С потерями
Размер потока                            : 125 Мбайт (8%)
Заголовок                                : 48 kHz, MPEG Layer 3, 2 ch, ~192.00 kbps avg
Язык                                     : Russian
Default                                  : Да
Forced                                   : Нет
Аудио #2
Идентификатор                            : 3
Формат                                   : AC-3
Формат/Информация                        : Audio Coding 3
Расширение режима                        : CM (complete main)
Параметр Endianness формата              : Big
Идентификатор кодека                     : A_AC3
Продолжительность                        : 1 ч. 30 м.
Вид битрейта                             : Постоянный
Битрейт                                  : 384 Кбит/сек
Каналы                                   : 6 каналов
Расположение каналов                     : Front: L C R, Side: L R, LFE
Частота                                  : 48,0 КГц
Битовая глубина                          : 16 бит
Метод сжатия                             : С потерями
Размер потока                            : 249 Мбайт (17%)
Заголовок                                : 48 kHz, AC3 Dolby Digital, 3/2 (L,C,R,l,r) + LFE ch, ~384.00 kbps avg
Язык                                     : English
Default                                  : Нет
Forced                                   : Нет
Текст
Идентификатор                            : 4
Формат                                   : UTF-8
Идентификатор кодека                     : S_TEXT/UTF8
Идентификатор кодека/Информация          : UTF-8 Plain Text
Язык                                     : Russian
Default                                  : Да
Forced                                   : Нет

log@x.264

avs [info]: 1024x576p 1:1 @ 24000/1001 fps (cfr)
x264 [info]: using SAR=1/1
frame I:1016 Avg QP:15.07 size: 67866
x264 [info]: frame I:1016 Avg QP:15.07 size: 67866
x264 [info]: frame P:31470 Avg QP:19.03 size: 19605
x264 [info]: frame B:98049 Avg QP:20.78 size: 4885
x264 [info]: consecutive B-frames: 5.0% 5.8% 9.7% 25.1% 11.8% 23.0% 5.8% 5.4% 1.1% 1.2% 0.4% 1.4% 0.0% 0.6% 0.6% 1.3% 2.0%
x264 [info]: mb I I16..4: 14.1% 68.3% 17.6%
x264 [info]: mb P I16..4: 3.1% 12.3% 1.6% P16..4: 38.6% 18.6% 12.2% 0.0% 0.0% skip:13.5%
x264 [info]: mb B I16..4: 0.1% 0.4% 0.1% B16..8: 36.5% 5.1% 1.4% direct: 2.8% skip:53.7% L0:40.2% L1:52.8% BI: 7.0%
x264 [info]: 8x8 transform intra:71.2% inter:67.2%
x264 [info]: direct mvs spatial:98.7% temporal:1.3%
x264 [info]: coded y,uvDC,uvAC intra: 76.4% 66.3% 41.5% inter: 14.5% 11.4% 4.6%
x264 [info]: i16 v,h,dc,p: 37% 17% 9% 37%
x264 [info]: i8 v,h,dc,ddl,ddr,vr,hd,vl,hu: 8% 9% 6% 10% 15% 13% 14% 11% 14%
x264 [info]: i4 v,h,dc,ddl,ddr,vr,hd,vl,hu: 8% 8% 4% 11% 16% 13% 14% 11% 15%
x264 [info]: Weighted P-Frames: Y:9.7% UV:5.8%
x264 [info]: ref P L0: 56.5% 11.1% 13.5% 4.8% 3.4% 2.8% 2.1% 1.2% 1.0% 0.9% 0.7% 0.7% 0.5% 0.5% 0.2% 0.0%
x264 [info]: ref B L0: 82.2% 9.0% 3.8% 1.6% 1.1% 0.8% 0.5% 0.3% 0.3% 0.2% 0.2% 0.1% 0.1%
x264 [info]: ref B L1: 93.0% 7.0%
x264 [info]: kb/s:1680.98
encoded 2535 frames

[Цитировать]

Топик был перенесен из форума Новинки кинопроката в форум Триллер
Henkok



Показать сообщения:    

Текущее время: 02-Дек 22:56

Часовой пояс: UTC + 3


Вы не можете начинать темы
Вы не можете отвечать на сообщения
Вы не можете редактировать свои сообщения
Вы не можете удалять свои сообщения
Вы не можете голосовать в опросах
Вы не можете прикреплять файлы к сообщениям
Вы не можете скачивать файлы

!ВНИМАНИЕ!
Сайт не предоставляет электронные версии произведений, а занимается лишь коллекционированием и каталогизацией ссылок, присылаемых и публикуемых на форуме нашими читателями. Если вы являетесь правообладателем какого-либо представленного материала и не желаете, чтобы ссылка на него находилась в нашем каталоге, свяжитесь с нами, и мы незамедлительно удалим ее. Файлы для обмена на трекере предоставлены пользователями сайта, и администрация не несет ответственности за их содержание. Просьба не заливать файлы, защищенные авторскими правами, а также файлы нелегального содержания!