[ Сегодня идет свободное скачивание без начисления Download ]


Статистика раздачи
Нет
 
   
 
Top  
 
 
-Андроид / App / Android - Год выпуска: 2013
Производство: Нидерланды
Жанр: Триллер
Перевод: Многоголосый закадровый, Дублированный
Режиссер: Бобо Боерманс / Bobby Boermans
Актеры: Ханна Хекстра, Роберт де Хуг, Исис Каболе Маттис ван де Санде Бакхуйзен, Марк ван Эувен, Лиза Сипс, Ерун Шпиценбергер, Алекс Хендрикс, Патрик Мартенс, Гиги Равелли-Описание фильма:
Симпатичная студентка Анна просыпается после вечеринки и обнаруживает на своем смартфоне загадочное приложение «Айрис»… Активируя приложение, Анна запускает головокружительную и трагическую череду событий в жизни своих друзей и знакомых. Кто за этим стоит? …
-Дата мировой премьеры: 28 марта 2013 (Нидерланды)
Дата российской премьеры: 10 октября 2013, «Экспонента»
Дата выхода DVD релиза: 16 декабря 2013, «Новый Диск»
Дата выхода Blu-Ray: Январь 2014, «Новый Диск»-Продолжительность: 01:15:34
Качество видео: DVDRip
Видеокодек: MPEG-4 AVC/H.264
Битрейт видео: ~2 299 Kbps
Размер кадра: 720 x 440@1024 x 440 (2.327) at 25.000 fps : 0.290 Bits/Pixel
Аудио 1: AC3 5.1, 448 Кбит/сек, 48,0 КГц, 16 бит (Русский - MVO)
Аудио 2: AC3 5.1, 448 Кбит/сек, 48,0 КГц, 16 бит (Русский - дублированный)-

General

Unique ID : 182195524550649808352899653562201828209 (0x891194E6C9B2B366A99F58735F746B71)
Complete name : F:\Видео\Android (2013).mkv
Format : Matroska
Format version : Version 4 / Version 2
File size : 1.69 GiB
Duration : 1h 15mn
Overall bit rate : 3 196 Kbps
Movie name : Android.2013.D.DVDRip.h264.1400MB.NNM-CLUB.GIU
Encoded date : UTC 2013-12-23 20:02:34
Writing application : mkvmerge v6.6.0 ('The Edge Of The In Between') built on Dec 1 2013 17:55:00
Writing library : libebml v1.3.0 + libmatroska v1.4.1

Video

ID : 1
Format : AVC
Format/Info : Advanced Video Codec
Format profile : High@L4.1
Format settings, CABAC : Yes
Format settings, ReFrames : 10 frames
Codec ID : V_MPEG4/ISO/AVC
Duration : 1h 15mn
Bit rate : 2 299 Kbps
Width : 720 pixels
Height : 440 pixels
Display aspect ratio : 2.35:1
Frame rate mode : Constant
Frame rate : 25.000 fps
Color space : YUV
Chroma subsampling : 4:2:0
Bit depth : 8 bits
Scan type : Progressive
Bits/(Pixel*Frame) : 0.290
Stream size : 1.18 GiB (70%)
Title : -=Release for NNM-CLUB.RU=-
Writing library : x264 core 119 r2106 07efeb4
Encoding settings : cabac=1 / ref=10 / deblock=1:-3:-3 / analyse=0x3:0x113 / me=umh / subme=10 / psy=1 / psy_rd=1.00:0.00 / mixed_ref=0 / me_range=24 / chroma_me=1 / trellis=2 / 8x8dct=1 / cqm=0 / deadzone=21,11 / fast_pskip=1 / chroma_qp_offset=-2 / threads=12 / sliced_threads=0 / nr=0 / decimate=0 / interlaced=0 / bluray_compat=0 / constrained_intra=0 / bframes=7 / b_pyramid=2 / b_adapt=1 / b_bias=0 / direct=3 / weightb=1 / open_gop=0 / weightp=2 / keyint=250 / keyint_min=25 / scenecut=40 / intra_refresh=0 / rc_lookahead=40 / rc=2pass / mbtree=1 / bitrate=2299 / ratetol=1.0 / qcomp=0.70 / qpmin=0 / qpmax=69 / qpstep=4 / cplxblur=20.0 / qblur=0.5 / ip_ratio=1.40 / aq=1:0.60
Language : English
Default : No
Forced : No

Audio #1

ID : 2
Format : AC-3
Format/Info : Audio Coding 3
Mode extension : CM (complete main)
Format settings, Endianness : Big
Codec ID : A_AC3
Duration : 1h 15mn
Bit rate mode : Constant
Bit rate : 448 Kbps
Channel count : 6 channels
Channel positions : Front: L C R, Side: L R, LFE
Sampling rate : 48.0 KHz
Bit depth : 16 bits
Compression mode : Lossy
Stream size : 242 MiB (14%)
Title : App
Language : Russian
Default : Yes
Forced : No

Audio #2

ID : 3
Format : AC-3
Format/Info : Audio Coding 3
Mode extension : CM (complete main)
Format settings, Endianness : Big
Codec ID : A_AC3
Duration : 1h 15mn
Bit rate mode : Constant
Bit rate : 448 Kbps
Channel count : 6 channels
Channel positions : Front: L C R, Side: L R, LFE
Sampling rate : 48.0 KHz
Bit depth : 16 bits
Compression mode : Lossy
Stream size : 242 MiB (14%)
Title : AC3.448.Kbps (6ch) Russian (Дубляж)
Language : Russian
Default : No
Forced : No

Menu

00:00:00.000 : :Chapter 01
00:00:53.200 : :Chapter 02
00:08:39.760 : :Chapter 03
00:17:01.360 : :Chapter 04
00:27:54.640 : :Chapter 05
00:35:53.200 : :Chapter 06
00:43:01.360 : :Chapter 07
00:51:54.640 : :Chapter 08
01:03:31.600 : :Chapter 09

[Цитировать]

Топик был перенесен из форума Новинки кинопроката в форум Триллер
Henkok



Показать сообщения:    

Текущее время: 10-Дек 10:00

Часовой пояс: UTC + 3


Вы не можете начинать темы
Вы не можете отвечать на сообщения
Вы не можете редактировать свои сообщения
Вы не можете удалять свои сообщения
Вы не можете голосовать в опросах
Вы не можете прикреплять файлы к сообщениям
Вы не можете скачивать файлы

!ВНИМАНИЕ!
Сайт не предоставляет электронные версии произведений, а занимается лишь коллекционированием и каталогизацией ссылок, присылаемых и публикуемых на форуме нашими читателями. Если вы являетесь правообладателем какого-либо представленного материала и не желаете, чтобы ссылка на него находилась в нашем каталоге, свяжитесь с нами, и мы незамедлительно удалим ее. Файлы для обмена на трекере предоставлены пользователями сайта, и администрация не несет ответственности за их содержание. Просьба не заливать файлы, защищенные авторскими правами, а также файлы нелегального содержания!