[ Сегодня идет свободное скачивание без начисления Download ]


Статистика раздачи
Нет
 
   
 
Top  
 
 
-Тебе конец! / You're Next (2013) WEB-DLRip
«Вы уверены, что закрыли дверь?»
- Год выпуска: 2013
Производство: США
Жанр: Ужасы, Триллер, Комедия
Перевод: Одноголосый закадровый, любительский (Xixidok)
Субтитры: Отсутствуют-Дата мировой премьеры: 10 сентября 2011 (Канада, кинофестиваль в Торонто)
Дата российской премьеры: 29 августа 2013, «Вольга»-Режиссер: Адам Вингард-Продюсер: Саймон Баррет, Кит Калдер, Ким Шерман-Актеры: Шарни Винсон, Николас Туччи, Венди Гленн, Эй Джей Боуэн, Джо Сванберг, Барбара Крэмптон, Роб Моран, Маргарет Лэни, Эми Саймец, Тай Уэст-Описание фильма:
Банда маньяков в звериных масках, вооруженных топорами и арбалетами, вторгается в загородный дом семьи Дэвисон. Жертвы оказываются в западне… Неожиданно среди них находится один достойный противник, способный дать отпор убийцам.-
Продолжительность: 01:34:31
Качество видео: WEB-DLRip
Видеокодек: Xvid
Битрейт видео: ~ 1501 Кбит/сек
Размер кадра: 720 x 304 (2.368) at 23.976 fps
Аудио #1: AC3 192 Кбит/сек (2ch), 48,0 КГц, 16 бит [Русский, VO Xixidok]
Аудио #2: AC3 256 Кбит/сек (2ch), 48,0 КГц, 16 бит [Английский]
Релиз:

Знаете ли вы, что...

• 21 сентября 2011 года студия Lionsgate объявила, что она приобрела права на распространение фильма в Америке, Великобритании и Канаде.
• Фильм был снят еще в 2011 году и демонстрировался на паре кинофестивалей, но в широкий прокат вышел только в августе 2013 года.

Ошибки в фильме

• После того как Феликс бьет Дрейка в грудь пятью ножами, в тот момент, когда он лежит на полу подвала, можно заметить защитный щит, который Дрейк носит под свитером.
• Сразу же после того момента, как его убивают, Пол лежит на полу с широко открытым ртом. Когда позже снова показывают его тело, его рот закрыт.
• В титрах должность бухгалтера продакшна написана с ошибкой («accountain» вместо правильного «accountant»).
• Количество крови на струнах рояля увеличивается каждый раз после смены кадра.

MediaInfo:

Полное имя                               : G:\Youre.Next.2013.L1.WEBDLRip.1400MB.NNM-CLUB.avi
Формат                                   : AVI
Формат/Информация                        : Audio Video Interleave
Размер файла                             : 1,30 Гбайт
Продолжительность                        : 1 ч. 34 м.
Общий поток                              : 1963 Кбит/сек
Программа кодирования                    : VirtualDubMod 1.5.10.2 (build 2540/release)
Библиотека кодирования                   : VirtualDubMod build 2540/release
Видео
Идентификатор                            : 0
Формат                                   : MPEG-4 Visual
Профиль формата                          : Advanced [email protected]
Параметр BVOP формата                    : 2
Параметр QPel формата                    : Да
Параметр GMC формата                     : Без точки перехода
Параметр матрицы формата                 : Default (H.263)
Режим смешивания                         : Сжатый битовый поток
Идентификатор кодека                     : XVID
Идентификатор кодека/Подсказка           : XviD
Продолжительность                        : 1 ч. 34 м.
Битрейт                                  : 1501 Кбит/сек
Ширина                                   : 720 пикселей
Высота                                   : 304 пикселя
Соотношение сторон                       : 2,35:1
Частота кадров                           : 23,976 кадра/сек
Цветовое пространство                    : YUV
Субдискретизация насыщенности            : 4:2:0
Битовая глубина                          : 8 бит
Тип развёртки                            : Прогрессивная
Метод сжатия                             : С потерями
Бит/(Пиксели*Кадры)                      : 0.286
Размер потока                            : 1015 Мбайт (76%)
Библиотека кодирования                   : XviD 1.2.1 (UTC 2008-12-04)
Аудио #1
Идентификатор                            : 1
Формат                                   : AC-3
Формат/Информация                        : Audio Coding 3
Расширение режима                        : CM (complete main)
Параметр Endianness формата              : Big
Идентификатор кодека                     : 2000
Продолжительность                        : 1 ч. 34 м.
Вид битрейта                             : Постоянный
Битрейт                                  : 192 Кбит/сек
Каналы                                   : 2 канала
Расположение каналов                     : Front: L R
Частота                                  : 48,0 КГц
Битовая глубина                          : 16 бит
Метод сжатия                             : С потерями
Размер потока                            : 130 Мбайт (10%)
Выравнивание                             : Разделение по промежуткам
Продолжительность промежутка             : 42  мс. (1,00 видеокадр)
Время предзагрузки промежутка            : 500  мс.
Аудио #2
Идентификатор                            : 2
Формат                                   : AC-3
Формат/Информация                        : Audio Coding 3
Расширение режима                        : CM (complete main)
Параметр Endianness формата              : Big
Идентификатор кодека                     : 2000
Продолжительность                        : 1 ч. 34 м.
Вид битрейта                             : Постоянный
Битрейт                                  : 256 Кбит/сек
Каналы                                   : 2 канала
Расположение каналов                     : Front: L R
Частота                                  : 48,0 КГц
Битовая глубина                          : 16 бит
Метод сжатия                             : С потерями
Задержка видео                           : 28 мс.
Размер потока                            : 173 Мбайт (13%)
Выравнивание                             : Разделение по промежуткам
Продолжительность промежутка             : 42  мс. (1,00 видеокадр)
Время предзагрузки промежутка            : 500  мс.

[Цитировать]



Показать сообщения:    

Текущее время: 04-Дек 15:18

Часовой пояс: UTC + 3


Вы не можете начинать темы
Вы не можете отвечать на сообщения
Вы не можете редактировать свои сообщения
Вы не можете удалять свои сообщения
Вы не можете голосовать в опросах
Вы не можете прикреплять файлы к сообщениям
Вы не можете скачивать файлы

!ВНИМАНИЕ!
Сайт не предоставляет электронные версии произведений, а занимается лишь коллекционированием и каталогизацией ссылок, присылаемых и публикуемых на форуме нашими читателями. Если вы являетесь правообладателем какого-либо представленного материала и не желаете, чтобы ссылка на него находилась в нашем каталоге, свяжитесь с нами, и мы незамедлительно удалим ее. Файлы для обмена на трекере предоставлены пользователями сайта, и администрация не несет ответственности за их содержание. Просьба не заливать файлы, защищенные авторскими правами, а также файлы нелегального содержания!