[ Сегодня идет свободное скачивание без начисления Download ]


Статистика раздачи
Нет
 
   
 
Top  
 
 
Симпсоны / The Simpsons -Оригинальное название: The Simpsons
Русское название: Симпсоны
Год выпуска: 2013
Страна: США
Жанр: Приключения, комедия, фантастика
Продолжительность: 20 минут (серия)
Перевод: Профессиональный (многоголосый закадровый) VO-Production

Субтитры: есть (русские [notabenoid.com], английские)-Производство: FOX
Режиссёр: Мэтт Гроунинг / Matt Groening
-Роли озвучивали: Дэн Кастелланета, Джули Кавнер, Нэнси Картрайт, Ярдли Смит, Гарри Ширер, Хэнк Азария, Памела Хейден, Тресс МакНилл, Карл Видерготт, Мэгги Росвэлл и др.-Описание: Симпсоны живут в вымышленном городе Спрингфилд, со своим обществом и историей. Гомер - отец семейства, который дает плохие советы и работает инспектором безопасности на атомной электростанции; Мардж - любящая мать и жена, старается сохранить спокойствие в семье; Барт - 10 летний хулиган; Лиза - философский 8-летний ребенок; и Мэгги - младенец, который общается посредством соски.-Качество: WEB-DL 720p
Формат: MKV
Видео кодек: h264
Аудио кодек: AC3
Видео:
  • 1-2 серии: MPEG4 Video (H264) 1280x718 23.976fps ~4300Kbps,
  • 3 и остальные серии: MPEG4 Video (H264) 1280x720 23.976fps ~4500Kbps
Аудио:
  • русская [VO-Production]: Dolby AC3 48000Hz stereo 192Kbps,
  • английская: Dolby AC3 48000Hz 6ch 384Kbps
Скриншоты:
-

Список серий

25 сезон (2013 год):
01. Homerland
02. Treehouse of Horror XXIV
03. Four Regrettings and a Funeral
04. YOLO
05. Labor Pains
06. The Kid is All Right
07. Yellow Subterfuge
08. White Christmas Blues

Media Info

General
UniqueID                         : 254238245970601174206609234893276488321 (0xBF44814DBB113306AD92B7F7A2BCA281)
Complete name                    : F:\Мои документы\Вадим\Моё видео (Вадим)\The Simpsons Season 25 (WEB-DL 720p)\The.Simpsons S25E01.Homerland 720p WEB-DL DD5.1 v.serij2013.mkv
Format                           : Matroska
File size                        : 645 MiB
Duration                         : 21mn 13s
Overall bit rate                 : 4 250 Kbps
Encoded date                     : UTC 2013-12-10 04:07:14
Writing application              : mkvmerge v5.8.0 ('No Sleep / Pillow') built on Sep  2 2012 15:37:04
Writing library                  : libebml v1.2.3 + libmatroska v1.3.0
Video
ID                               : 1
Format                           : AVC
Format/Info                      : Advanced Video Codec
Format profile                   : High@L3.1
Format settings, CABAC           : No
Format settings, ReFrames        : 2 frames
Muxing mode                      : Header stripping
Codec ID                         : V_MPEG4/ISO/AVC
Duration                         : 21mn 13s
Bit rate mode                    : Variable
Bit rate                         : 3 589 Kbps
Width                            : 1 280 pixels
Height                           : 718 pixels
Display aspect ratio             : 16:9
Frame rate                       : 23.976 fps
Color space                      : YUV
Chroma subsampling               : 4:2:0
Bit depth                        : 8 bits
Scan type                        : Progressive
Bits/(Pixel*Frame)               : 0.163
Stream size                      : 545 MiB (84%)
Language                         : English
Color primaries                  : BT.709-5, BT.1361, IEC 61966-2-4, SMPTE RP177
Transfer characteristics         : BT.709-5, BT.1361
Matrix coefficients              : BT.709-5, BT.1361, IEC 61966-2-4 709, SMPTE RP177
Audio #1
ID                               : 2
Format                           : AC-3
Format/Info                      : Audio Coding 3
Mode extension                   : CM (complete main)
Muxing mode                      : Header stripping
Codec ID                         : A_AC3
Duration                         : 21mn 13s
Bit rate mode                    : Constant
Bit rate                         : 192 Kbps
Channel(s)                       : 2 channels
Channel positions                : Front: L R
Sampling rate                    : 48.0 KHz
Bit depth                        : 16 bits
Compression mode                 : Lossy
Video delay                      : 250ms
Stream size                      : 29.2 MiB (5%)
Title                            : VO-Production
Language                         : Russian
Audio #2
ID                               : 3
Format                           : AC-3
Format/Info                      : Audio Coding 3
Mode extension                   : CM (complete main)
Muxing mode                      : Header stripping
Codec ID                         : A_AC3
Duration                         : 21mn 13s
Bit rate mode                    : Constant
Bit rate                         : 384 Kbps
Channel(s)                       : 6 channels
Channel positions                : Front: L C R, Side: L R, LFE
Sampling rate                    : 48.0 KHz
Bit depth                        : 16 bits
Compression mode                 : Lossy
Video delay                      : 16ms
Stream size                      : 58.3 MiB (9%)
Title                            : Original
Language                         : English
Text #1
ID                               : 4
Format                           : UTF-8
Codec ID                         : S_TEXT/UTF8
Codec ID/Info                    : UTF-8 Plain Text
Language                         : Russian
Text #2
ID                               : 5
Format                           : UTF-8
Codec ID                         : S_TEXT/UTF8
Codec ID/Info                    : UTF-8 Plain Text
Language                         : English

[Цитировать]

Топик был перенесен из форума Симпсоны / The Simpsons в форум Зарубежные мультфильмы
Prizr@k



Показать сообщения:    

Текущее время: 24-Фев 11:07

Часовой пояс: UTC + 3


Вы не можете начинать темы
Вы не можете отвечать на сообщения
Вы не можете редактировать свои сообщения
Вы не можете удалять свои сообщения
Вы не можете голосовать в опросах
Вы не можете прикреплять файлы к сообщениям
Вы не можете скачивать файлы

!ВНИМАНИЕ!
Сайт не предоставляет электронные версии произведений, а занимается лишь коллекционированием и каталогизацией ссылок, присылаемых и публикуемых на форуме нашими читателями. Если вы являетесь правообладателем какого-либо представленного материала и не желаете, чтобы ссылка на него находилась в нашем каталоге, свяжитесь с нами, и мы незамедлительно удалим ее. Файлы для обмена на трекере предоставлены пользователями сайта, и администрация не несет ответственности за их содержание. Просьба не заливать файлы, защищенные авторскими правами, а также файлы нелегального содержания!