[ Сегодня идет свободное скачивание без начисления Download ]


Статистика раздачи
Нет
 
   
 
Top  
 
 
Симпсоны / The Simpsons
Страна: США
Жанр: комедия, ситком, сатира
Продолжительность: 21—24 мин.
Год выпуска: 2012–2013
Перевод: Профессиональный (многоголосый закадровый)
Русские субтитры: нет
Режиссёр: Мэтт Грейнинг / Matt Groening
Роли озвучивали: Дэн Кастелланета, Хэнк Азариа, Джулия Кавнер, Нэнси Картрайт, Ярдли Смит, Гарри Ширер
Описание: «Си?мпсоны» (англ. The Simpsons) — самый длинный мультсериал в истории американского телевидения, длящийся 25 сезонов (теперь продлён до 26). Первая мини-серия «Good night» была показана в «Шоу Трейси Ульман» 19 апреля 1987 года. Демонстрация полноценных серий мультсериала началась 17 декабря 1989 года на канале FOX. Выпускается «Gracie Films» для кинокомпании «20th Century Fox». Мультсериал в настоящее время известен телезрителям более чем 100 стран.
Это насыщенное сатирой (в том числе социальной) шоу высмеивает многие клише и стереотипы, в частности — стиль жизни «среднестатистического американца», особенности мировых культур в целом, знаменитостей и даже само телевидение и телеканал «FOX»; не стесняется затрагивать такие скользкие вопросы, как политика и религия: в частности, поднимались темы однополых браков, борьбы дарвинистов и креационистов, войны в Ираке.
Журнал Time в 1998 году назвал «Симпсонов» лучшим телевизионным сериалом XX века. 27 июля 2007 года в США прошла премьера полнометражного мультфильма с героями сериала, «The Simpsons Movie»; в России фильм получил название «Симпсоны в кино», его выход на экраны состоялся 16 августа 2007 года.
Доп. информация: Двадцать четвёртый сезон мультсериала «Симпсоны» — вышел в эфир 30 сентября 2012 года на телеканале FOX. Завершился 19 мая 2013 года.
Семпл: http://multi-up.com/925038
Качество: WEB-DLRip
Формат: AVI
Видео: Xvid, 720x400, 23.976fps
Аудио: Dolby AC3, 48000Hz, stereo, 192kbps [Russian]
Субтитры: отсутствуют

Список серий

1. «Moonshine River»
2. «Treehouse of Horror XXIII»
3. «Adventures in Baby-Getting»
4. «Gone Abie Gone»
5. «Penny-Wiseguys»
6. «A Tree Grows in Springfield»
7. «The Day the Earth Stood Cool»
8. «To Cur with Love»
9. «Homer Goes to Prep School»
10. «A Test Before Trying»
11. «The Changing of the Guardian»
12. «Love is a Many-Splintered Thing»
13. «Hardly Kirk-ing»
14. «Gorgeous Grampa»
15. «Black-Eyed, Please»
16. «Dark Knight Court»
17. «What Animated Women Want»
18. «Pulpit Friction»
19. «Whiskey Business»
20. «The Fabulous Faker Boy»
21. «The Saga of Carl»
22. «Dangers on a Train»

Подробные технические данные

GeneralComplete name : I:\The.Simpsons.S24.WEB-DLRip.VO-Production\The_Simpsons_2401_WEB-DLrip_VO-production.aviFormat : AVIFormat/Info : Audio Video InterleaveFile size : 202 MiBDuration : 21mn 12sOverall bit rate : 1 329 KbpsWriting application : VirtualDubMod 1.5.10.2 (build 2540/release)Writing library : VirtualDubMod build 2540/release
VideoID : 0Format : MPEG-4 VisualFormat profile : Advanced [email protected] settings, BVOP : YesFormat settings, QPel : NoFormat settings, GMC : No warppointsFormat settings, Matrix : Default (H.263)Codec ID : XVIDCodec ID/Hint : XviDDuration : 21mn 12sBit rate : 1 128 KbpsWidth : 720 pixelsHeight : 400 pixelsDisplay aspect ratio : 16:9Frame rate : 23.976 fpsColor space : YUVChroma subsampling : 4:2:0Bit depth : 8 bitsScan type : ProgressiveCompression mode : LossyBits/(Pixel*Frame) : 0.163Stream size : 171 MiB (85%)Writing library : XviD 1.2.0.dev47 (UTC 2006-11-01)
AudioID : 1Format : AC-3Format/Info : Audio Coding 3Mode extension : CM (complete main)Format settings, Endianness : BigCodec ID : 2000Duration : 21mn 12sBit rate mode : ConstantBit rate : 192 KbpsChannel count : 2 channelsChannel positions : Front: L RSampling rate : 48.0 KHzBit depth : 16 bitsCompression mode : LossyDelay relative to video : 12msStream size : 29.1 MiB (14%)Alignment : Split accross interleavesInterleave, duration : 42 ms (1.00 video frame)Interleave, preload duration : 500 ms

Скриншоты

[Цитировать]



Показать сообщения:    

Текущее время: 06-Дек 17:08

Часовой пояс: UTC + 3


Вы не можете начинать темы
Вы не можете отвечать на сообщения
Вы не можете редактировать свои сообщения
Вы не можете удалять свои сообщения
Вы не можете голосовать в опросах
Вы не можете прикреплять файлы к сообщениям
Вы не можете скачивать файлы

!ВНИМАНИЕ!
Сайт не предоставляет электронные версии произведений, а занимается лишь коллекционированием и каталогизацией ссылок, присылаемых и публикуемых на форуме нашими читателями. Если вы являетесь правообладателем какого-либо представленного материала и не желаете, чтобы ссылка на него находилась в нашем каталоге, свяжитесь с нами, и мы незамедлительно удалим ее. Файлы для обмена на трекере предоставлены пользователями сайта, и администрация не несет ответственности за их содержание. Просьба не заливать файлы, защищенные авторскими правами, а также файлы нелегального содержания!