[ Сегодня идет свободное скачивание без начисления Download ]


Статистика раздачи
Нет
 
   
 
Top  
 
 
Симпсоны / The Simpsons
Сезон 15
-Год выпуска: 2003
Страна: США
Жанр: комедия, мультсериал
Продолжительность: ~ 22 мин. серия
Перевод: Профессиональный (двухголосый, закадровый) 2x2
Русские субтитры: нет
Режиссёр: Мэтт Гроунинг / Matt Groening-Описание: Симпсоны — самый длинный мультсериал в истории американского телевидения, состоящий из 530 серий в 24 сезонах. Мультисериал в настоящее время знаком телезрителям более чем 100 стран. Это насыщенное сатирой (в том числе социальной) шоу высмеивает многие клише и стереотипы, в частности — стиль жизни «среднестатистического американца», особенности мировых культур в целом, знаменитостей и даже само телевидение и телеканал «Fox»; не стесняется затрагивать такие скользкие вопросы, как политика и религия: в частности, поднимались темы однополых браков, борьбы дарвинистов и креационистов, войны в Ираке. Журнал Time в 1998 году назвал «Симпсонов» лучшим телевизионным сериалом XX века.-Качество: BDRip | CtrlHD | [Sample]
Формат: MKV
Видео: 960x720, 23.976 fps, ~2000 kbps
Аудио №1: Русский AC3, 48 kHz, 2.0 ch, ~192.00 kbps | Двухголосый закадровый, 2x2
Аудио №2: Украинский AC3, 48 kHz, 2.0 ch, ~192.00 kbps | Дубляж, M1
Аудио №3: Английский AC3, 48.0 kHz, 5.1 ch, ~648.00 kbps
Аудио №4: Английский ACC, 48.0 kHz, 2.0 ch, ~64.00 kbps | Комментарии
Субтитры: английский (sdh)-Скриншоты:

Список серий

01. Treehouse of Horror XIV
02. My Mother the Carjacke
03. The President Wore Pearls
04. The Regina Monologues
05. The Fat and the Furriest
06. Today I am A Clown
07. ’Tis The Fifteenth Season
08. Marge vs. Singles, Seniors, Childless Couples and Teens, and Gays
09. I, (Annoyed Grunt)-Bot
10. Diatribe of a Mad Housewife
11. Margical History Tour
12. Milhouse Doesn’t Live Here Anymore
13. Smart and Smarter
14. The Ziff Who Came to Dinner
15. Co-Dependent’s Day
16. The Wandering Juvie
17. My Big Fat Geek Wedding
18. Catch ’em If You Can
19. Simple Simpson
20. The Way We Weren’t
21. Bart-Mangled Banner
22. Fraudcast News

mi

General
Unique ID                                : 222994565171860746244229241287423265862 (0xA7C330E8A747D2B980778D3DDE478C46)
Complete name                            : K:\The.Simpsons.S15.720p.BDRip.Rus.Ukr.Eng\15x01 - Treehouse of Horror XIV.mkv
Format                                   : Matroska
Format version                           : Version 2
File size                                : 375 MiB
Duration                                 : 22mn 1s
Overall bit rate                         : 2 381 Kbps
Movie name                               : 15x01 [EABF21] - Treehouse of Horror XIV
Encoded date                             : UTC 2013-09-18 18:16:52
Writing application                      : mkvmerge v6.3.0 ('You can't stop me!') built on Jun 28 2013 20:09:41
Writing library                          : libebml v1.3.0 + libmatroska v1.4.0
Video
ID                                       : 1
Format                                   : AVC
Format/Info                              : Advanced Video Codec
Format profile                           : High@L3.1
Format settings, CABAC                   : Yes
Format settings, ReFrames                : 5 frames
Codec ID                                 : V_MPEG4/ISO/AVC
Duration                                 : 22mn 1s
Width                                    : 960 pixels
Height                                   : 720 pixels
Display aspect ratio                     : 4:3
Frame rate mode                          : Constant
Frame rate                               : 23.976 fps
Color space                              : YUV
Chroma subsampling                       : 4:2:0
Bit depth                                : 8 bits
Scan type                                : Progressive
Title                                    : Treehouse of Horror XIV
Writing library                          : x264 core 129 r2230 1cffe9f
Encoding settings                        : cabac=1 / ref=5 / deblock=1:-3:-3 / analyse=0x3:0x133 / me=tesa / subme=10 / psy=0 / mixed_ref=1 / me_range=24 / chroma_me=1 / trellis=2 / 8x8dct=1 / cqm=0 / deadzone=21,11 / fast_pskip=0 / chroma_qp_offset=-2 / threads=3 / lookahead_threads=1 / sliced_threads=0 / nr=0 / decimate=1 / interlaced=0 / bluray_compat=0 / constrained_intra=0 / bframes=9 / b_pyramid=2 / b_adapt=2 / b_bias=0 / direct=1 / weightb=1 / open_gop=0 / weightp=2 / keyint=240 / keyint_min=23 / scenecut=40 / intra_refresh=0 / rc=crf / mbtree=0 / crf=17.5 / qcomp=0.60 / qpmin=0 / qpmax=69 / qpstep=4 / ip_ratio=1.40 / pb_ratio=1.30 / aq=2:0.60
Language                                 : English
Default                                  : Yes
Forced                                   : No
Audio #1
ID                                       : 2
Format                                   : AC-3
Format/Info                              : Audio Coding 3
Mode extension                           : CM (complete main)
Format settings, Endianness              : Big
Codec ID                                 : A_AC3
Duration                                 : 22mn 1s
Bit rate mode                            : Constant
Bit rate                                 : 192 Kbps
Channel(s)                               : 2 channels
Channel positions                        : Front: L R
Sampling rate                            : 48.0 KHz
Bit depth                                : 16 bits
Compression mode                         : Lossy
Stream size                              : 30.3 MiB (8%)
Title                                    : RUS
Language                                 : Russian
Default                                  : Yes
Forced                                   : No
Audio #2
ID                                       : 3
Format                                   : AC-3
Format/Info                              : Audio Coding 3
Mode extension                           : CM (complete main)
Format settings, Endianness              : Big
Codec ID                                 : A_AC3
Duration                                 : 22mn 1s
Bit rate mode                            : Constant
Bit rate                                 : 192 Kbps
Channel(s)                               : 2 channels
Channel positions                        : Front: L R
Sampling rate                            : 48.0 KHz
Bit depth                                : 16 bits
Compression mode                         : Lossy
Stream size                              : 30.3 MiB (8%)
Title                                    : UKR
Language                                 : Ukrainian
Default                                  : No
Forced                                   : No
Audio #3
ID                                       : 4
Format                                   : AC-3
Format/Info                              : Audio Coding 3
Mode extension                           : CM (complete main)
Format settings, Endianness              : Big
Codec ID                                 : A_AC3
Duration                                 : 22mn 1s
Bit rate mode                            : Constant
Bit rate                                 : 640 Kbps
Channel(s)                               : 6 channels
Channel positions                        : Front: L C R, Side: L R, LFE
Sampling rate                            : 48.0 KHz
Bit depth                                : 16 bits
Compression mode                         : Lossy
Stream size                              : 101 MiB (27%)
Title                                    : ENG
Language                                 : English
Default                                  : No
Forced                                   : No
Audio #4
ID                                       : 5
Format                                   : AAC
Format/Info                              : Advanced Audio Codec
Format profile                           : HE-AAC / LC
Codec ID                                 : A_AAC
Duration                                 : 22mn 1s
Channel(s)                               : 2 channels
Channel positions                        : Front: L R
Sampling rate                            : 48.0 KHz / 24.0 KHz
Compression mode                         : Lossy
Delay relative to video                  : 31ms
Title                                    : ENG, Commentary
Language                                 : English
Default                                  : No
Forced                                   : No
Text
ID                                       : 6
Format                                   : UTF-8
Codec ID                                 : S_TEXT/UTF8
Codec ID/Info                            : UTF-8 Plain Text
Title                                    : ENG
Language                                 : English
Default                                  : No
Forced                                   : No
Menu
00:00:00.000                             : en:Chapter 00
00:01:30.423                             : en:Chapter 01
00:03:18.406                             : en:Chapter 02
00:06:48.950                             : en:Chapter 03
00:14:44.091                             : en:Chapter 04
00:21:11.645                             : en:Chapter 05

[Цитировать]

Топик был перенесен из форума Симпсоны / The Simpsons в форум Зарубежные мультфильмы
Prizr@k



Показать сообщения:    

Текущее время: 28-Мар 14:19

Часовой пояс: UTC + 6


Вы не можете начинать темы
Вы не можете отвечать на сообщения
Вы не можете редактировать свои сообщения
Вы не можете удалять свои сообщения
Вы не можете голосовать в опросах
Вы не можете прикреплять файлы к сообщениям
Вы не можете скачивать файлы

!ВНИМАНИЕ!
Сайт не предоставляет электронные версии произведений, а занимается лишь коллекционированием и каталогизацией ссылок, присылаемых и публикуемых на форуме нашими читателями. Если вы являетесь правообладателем какого-либо представленного материала и не желаете, чтобы ссылка на него находилась в нашем каталоге, свяжитесь с нами, и мы незамедлительно удалим ее. Файлы для обмена на трекере предоставлены пользователями сайта, и администрация не несет ответственности за их содержание. Просьба не заливать файлы, защищенные авторскими правами, а также файлы нелегального содержания!