[ Сегодня идет свободное скачивание без начисления Download ]


Статистика раздачи
Нет
 
   
 
Top  
 
 
-Симпсоны / The Simpsons (1989–2013) HDTV, TVRip- Год выпуска: 1989–2013
Жанр: Компьютерная анимация, Для взрослых, Комедия
Язык: Русский
Описание:
Симпсоны - самый длинный мультсериал в истории американского телевидения, длящийся 24 сезона. Первая мини-серия «Good night» была показана в «Шоу Трейси Ульман» 19 апреля 1987 года. Демонстрация полноценных серий мультсериала началась 17 декабря 1989 года на канале FOX. Выпускается «Gracie Films» для кинокомпании «20th Century Fox». Мультсериал в настоящее время известен телезрителям более чем 100 стран!
Режиссер: Мэтт Гроунинг
Персонажи: Гомер Симпсон, Лиза Симпсон, Мардж Симпсон, Барт Симпсон, Мэгги Симпсон.
Продолжительность: 530 серии по 21-23 минуты
Перевод: Многоголосый закадровый, Одноголосый закадровый.
Автор перевода: Рен-ТВ (1-18 сезоны), Vo-Production (20-24 сезоны), DoublePR и DarkFill (19 сезон)
Формат видео: AVI (1-19 сезоны), MKV (20-24 сезоны)
Видеокодек: DivX 3 (1, 2 сезоны), XviD (3-13, 15-19 сезоны), DivX 5 (14 сезон), MPEG-4 (20-24 сезоны)
Битрейт видео: ~917-1543kb/s (1-19 сезоны), ~2774-4637kb/s (20-24 сезоны)
Размер кадра:
1, 2, 5-9, 16-19 сезоны: 512x384
3, 4 сезоны: 480x360
10, 15 сезоны: 576x432
11-13 сезоны: 640x480
14 сезон: 560x420
20-24 сезоны: 720p, 1080p
Качество видео: HDTV, TVRip
Аудиокодек: 1-19 сезоны: MP3; 20-23 сезоны: AC-3/DTS
Битрейт аудио: 1-9, 15 сезоны: ~64kb/s; 10, 11, 16, 17 сезоны: ~96kb/s; 12-14, 18 сезоны: ~128kb/s; 19 сезон: ~192kb/s; 20-24 сезоны: ~256-320kb/s
Дополнительная информация:

1-й сезон

01. Симпсоны жарятся на открытом огне (Simpsons Roasting on an Open Fire)
02. Барт - гений (Bart the Genius)
03. Одиссея Гомера (Homer's Odyssey)
04. Нет места хуже дома (There's no Disgrace Like Home)
05. Барт - генерал (Bart the General)
06. Стонущая Лиза (Moaning Lisa)
07. Зов Симпсонов (The Call of the Simpsons)
08. Говорящая голова (The Telltale Head)
09. Жизнь на быстрой дорожке (Life on the Fast Lane)
10. Вечеринка Гомера (Homer's Night Out)
11. Гроздья гнева (The Crepes of Wrath)
12. Красти арестован (Krusty Gets Busted)
13. В один из прекрасных вечеров (Some Enchanted Evening)

2-й сезон

01. Барт получает 'двойку' (Bart Gets An F)
02. Симпсон и советник (Simpson and Delilah)
03. Дом ужасов (Treehouse of Horror)
04. Две машины в каждом гараже, три глаза у каждой рыбы (Two Cars in Every Garage and Three Eyes on Every Fish)
05. Танцующий Гомер (Dancin' Homer)
06. Игра до победного конца (Dead Putting Society)
07. Барт против дня Благодарения (Bart vs. Thanksgiving)
08. Барт сорвиголова (Bart the Daredevil)
09. Щекотка, Царапка и Мардж (Itchy & Scratchy & Marge)
10. Барт попал под машину (Bart Gets Hit by a Car)
11. Раз рыба, два рыба, ядовитая рыба, голубая рыба (One Fish, Two Fish, Blowfish, Blue Fish)
12. Какими мы были (The Way We Was)
13. Гомер против Лизы и 8ой заповеди (Homer vs. Lisa and the Eighth Commandment)
14. Очаровашка директор (Principal Charming)
15. О брат, где же ты? (Oh Brother, Where Art Thou?)
16. Собака Барта получает 'двойку' (Bart's Dog Gets an F)
17. Старые деньги (Old Money)
18. Сила искусства (Brush With Greatness)
19. Заместитель учителя Лизы (Lisa's Substitute)
20. Война Симпсонов (The War of the Simpsons)
21. Комикс на троих (Three Men and a Comic Book)
22. Кровная месть (Blood Feud)

3-й сезон

01. Совершенно безумный папа (Stark Raving Dad)
02. Мистер Лиза едет в Вашингтон (Mr. Lisa Goes to Washington)
03. Когда Фландерс обанкротился (When Flanders Failed)
04. Барт - убийца (Bart the Murderer)
05. Гомер в словаре (Homer Defined)
06. Клоун в отца (Like Father Like Clown)
07. Дом ужасов II (Treehouse of Horror II)
08. Лизин Пони (Lisa's Pony)
09. Субботы грома (Saturdays of Thunder)
10 Горючий Мо (Flaming Moe's)
11. Бернс продает АЭС (Burns Verkaufen Der Kraftwerk)
12. Я женат на Мардж (I Married Marge)
13. Радио Барт (Radio Bart)
14. Лиза - грек (Lisa the Greek)
15. Гомер один дома (Homer Alone)
16. Барт любовник (Bart the Lover)
17. Гомер с битой (Homer at the Bat)
18. Раздельные каникулы (Separate Vocations)
19. Собака смерти (Dog of Death)
20. Полковник Гомер (Colonel Homer)
21. Черный вдовец (Black Widower)
22. Шоу Отто (The Otto Show)
23. Друг Барта влюбился (Bart's Friend Falls in Love)
24. Брат, одолжи монетку? (Brother, Can You Spare Two Dimes?)

4-й сезон

01. Лагерь Красти (Kamp Krusty)
02. Трамвай имени Мардж(A Streetcar Named Marge)
03. Гомер - еретик(Homer the Heretic)
04. Лиза - королева красоты(Lisa the Beauty Queen)
05. Дом ужасов III (Treehouse of Horror III)
06. Щекотка и Царапка: фильм (Itchy & Scratchy: The Movie)
07. Мардж устраивается на работу (Marge Gets a Job)
08. Новый ребенок в квартале (The New Kid on the Block)
09. Мистер Плуг (Mr. Plow)
10. Первое слово Лизы (Lisa's First Word)
11. Тройное шунтирование Гомера (Homer's Triple Bypass)
12. Мардж против монорельса (Marge vs. the Monorail)
13. Выбор Сельмы (Selma's Choice)
14. Брат с той же планеты (Brother From the Same Planet)
15. Я люблю Лизу (I Love Lisa)
16 Без пива (Duffless)
17. Последняя надежда Спрингфилда (Last Exit to Springfield)
18. Как это было: Клип-шоу Симпсонов (So It's Come to This: A Simpsons Clip Show)
19. Фронт (The Front)
20. День изгнания (Whacking Day)
21. Оковы Мардж (Marge in Chains)
22. Шоу Карсти отменяется (Krusty Gets Kancelled)

5-й сезон

01. Квартет Гомера (Homer's Barbershop Quartet)
02. Мыс Страха (Cape Feare)
03. Гомер Поступает в Колледж (Homer Goes to College)
04. Бутон розы (Rosebud)
05. Дом Ужасов IV (Treehouse of Horror IV)
06. Мардж в бегах (Marge on the Lam)
07 Внутренний Ребенок Барта (Bart's Inner Child)
08. Бойскауты в Районе (Boy-Scoutz 'N The Hood)
09. Последнее Искушение Гомера (The Last Temptation of Homer)
10. $прингфилд или Легальные Азартные игры ($pringfield (Or, How I Learned to Stop Worrying and Love Legalized Gambling))
11. Гомер и Комитет Бдительности (Homer the Vigilante)
12. Барт Становится Знаменитым (Bart Gets Famous)
13. Гомер и Апу (Homer and Apu)
14. Лиза против Малибу Стейси (Lisa vs. Malibu Stacy)
15. Гомер в Космосе (Deep Space Homer)
16. Гомер Любит Фландерса (Homer Loves Flanders)
17. Барт Получает Слона (Bart Gets an Elephant)
18. Наследник Бернса (Burns' Heir)
19. Сладкая Песня Сеймура Скиннера (Sweet Seymour Skinner's Baadasssss Song)
20. Парень Который Слишком Много Знал(The Boy Who Knew Too Much)
21. Возлюбленный Леди Бувье (Lady Bouvier's Lover)
22. Тайны Успешного Брака(Secrets of A Successful Marriage)

6-й сезон

01. Барт тьмы (Bart of Darkness)
02. Соперница Лизы (Lisa's Rival)
03. Еще одно клип-шоу Симпсонов (Another Simpsons Clip Show)
04. Страна Щекотки и Царапки (Itchy & Scratchy Land)
05. Сайдшоу Боб Робертс (Sideshow Bob Roberts)
06. Дом Ужасов V (Treehouse of Horror V)
07. Подруга Барта (Bart's Girlfriend)
08. Лиза на льду (Lisa on Ice)
09. Плохой Гомер (Homer Badman)
10. Дедушка против сексуального бессилия (Grandpa vs. Sexual Inadequacy)
11. Боязнь полетов (Fear of Flying)
12. Великий Гомер (Homer the Great)
13. С Мэгги нас трое (And Maggie Makes Three)
14. Комета Барта (Bart's Comet)
15. Клоун Гомер (Homie the Clown)
16. Барт против Австралии (Bart vs. Australia)
17. Гомер против Пэтти и Сэльмы (Homer vs. Patty and Selma)
18. Бернс - звезда (A Star is Burns)
19. Свадьба Лизы (Lisa's Wedding)
20. Две дюжины и одна борзая (Two Dozen and One Greyhounds)
21. Родительский совет распущен (The PTA Disbands)
22. Вокруг Спрингфилда (Round Springfield)
23. Спрингфилдская связь (The Springfield Connection)
24. Лимон Троя (Lemon of Troy)
25. Кто стрелял в мистера Бернса (часть 1) (Who Shot Mr. Burns? (Part One))

7-й сезон

01. Кто стрелял в мистера Бернса (часть 2) (Who Shot Mr. Burns? (Part Two))
02. Радиоактивный человек (Radioactive Man)
03. Дом, Милый Дом-дидли-ом (Home Sweet Homediddly-Dum-Doodily)
04. Барт продает свою душу (Bart Sells His Soul)
05. Лиза вегетарианка (Lisa the Vegetarian)
06. Дом ужасов VI (Treehouse of Horror VI)
07. Гомер Королевского Размера (King-Size Homer)
08. Бабушка Симпсон (Mother Simpson)
09. Последний Выход Шестерки Боба (Sideshow Bob's Last Gleaming)
10. Грандиозный 138й эпизод 'Симпсонов' (The Simpsons 138th Episode Spectacular)
11. Мардж Бы Это Не Понравилось (Marge Be Not Proud)
12. Команда Гомера (Team Homer)
13. Два Плохих Соседа (Two Bad Neighbors)
14. Сцены Из Классовой Борьбы В Спрингфилде (Scenes From the Class Struggle in Springfield)
15. Барт Сыщик (Bart the Fink)
16. Любознательная Лиза (Lisa the Iconoclast)
17. Гомер за Смитерса (Homer The Smithers)
18. День, Когда Умерло Насилие (The Day the Violence Died)
19. Рыбка по имени Сэльма (A Fish Called Selma)
20. Барт В Пути (Bart on the Road)
21. 22 коротких фильма о Спрингфилде (22 Short Films About Springfield)
22. Проклятие Летучей Пираньи (The Curse of the Flying Hellfish)
23. Много Апу из Ничего (Much Apu About Nothing)
24. Гомерпалуза (Homerpalooza)
25. Лето На Пляже (Summer of 4 ft. 2)

8-й сезон

01. Дом Ужасов 7 (Treehouse of Horror VII)
02. Переехать можно только дважды (You Only Move Twice)
03. Поражение Гомера (The Homer They Fall)
04. Бернс, младенец Бернс (Burns, Baby Burns)
05. Ночная жизнь Барта (Bart After Dark)
06. Разведенный Милхаус (A Milhouse Divided)
07. Свидание Лизы с хулиганом (Lisa's Date With Density)
08. Ураганный Недди (Hurricane Neddy )
09. Таинственное путешествие Гомера (El Viaje de Nuestro Jomer (The Mysterious Voyage of Homer))
10. Спрингфилдские материалы (The Springfield Files)
11. Запутанный мир Марж Симпсон (The Twisted World of Marge Simpson)
12. Гора безумия (Mountain of Madness)
13. Шерри Бобинс (Simpsoncalifragilistic - expiala(Annoyed Grunt)cious)
14. Шоу Щекотки, Царапки и Лайки (The Itchy & Scratchy & Poochie Show)
15. Фобия Гомера (Homer's Phobia)
16. Брат из другого сериала (Brother From Another Series)
17. Моя сестра, моя сиделка (My Sister, My Sitter)
18. Гомер против восемнадцатой поправки (Homer vs. the Eighteenth Amendment)
19. Тайны начальной школы (Grade School Confidential)
20. Собачий бунт (The Canine Mutiny)
21. Старик и Лиза (The Old Man and Lisa)
22. Мы верим в Мардж (In Marge We Trust)
23. Враг Гомера (Homer's Enemy)
24. Продолжения Симпсонов (The Simpsons Spinoff Showcase)
25. Тайная война Лизы Симпсон (The Secret War of Lisa Simpson)

9-й сезон

01. Нью-Йорк против Гомера Симпсона (The City of New York vs. Homer Simpson)
02. Директор и нищий (The Principal and the Pauper)
03. Саксофон Лизы (Lisa's Sax)
04. Дом ужасов VIII (Treehouse of Horror VIII)
05. Заряженная семья (The Cartridge Family)
06. Барт - звезда (Bart Star)
07. Две миссис Нахасапимапиталон (The Two Mrs. Nahasapeemapetilons)
08. Лиза - скептик (Lisa the Skeptic)
09. Недвижимость кусается (Realty Bites)
10. Чудо на вечнозеленой террасе (Miracle on Evergreen Terrace)
11. Все поют, все танцуют (All Singing, All Dancing)
12. Карнавальщик Барт (Bart Carny)
13. Радость секты (The Joy of Sect)
14. Автобус (Das Bus)
15. Последнее искушение Красти (The Last Temptation of Krust)
16. Глупейшая компенсация (Dumbbell Indemnity)
17 Лиза Симпсон (Lisa the Simpson)
18. Малыш Вигги (This Little Wiggy)
19. Симпсон на флоте (Simpson Tide)
20. Неприятность с триллионами (The Trouble With Trillions)
21. Девичье издание (Girly Edition)
22. Мусор Титанов (Trash of the Titans)
23. Царь горы (King of the Hill)
24. Лиза потерялась (Lost Our Lisa)
25. Прирожденные целовальщики (Natural Born Kissers)

10-й сезон

01. Жирные танцы (Lard of the Dance )
02. Волшебник c Вечнозеленого бульвара (The Wizard of Evergreen Terrace)
03. Барт - мать (Bart the Mother)
04. Дом ужасов 9 (Treehouse of Horror IX )
05. Перехитривший звезду (When You Dish Upon a Star )
06. D'oh на ветру (D'oh-In in the Wind)
07. Лиза получает пятерку (Lisa Gets an 'A')
08. Неприятности с почками (Homer Simpson in: 'Kidney Trouble')
09. Мэр мафии (Mayored to the Mob)
10. Вива Нэд Фландерс (Viva Ned Flanders )
11. Дикий Барт непобедим (Wild Barts Can't Be Broken)
12. Воскресенье, чертово воскресенье (Sunday, Cruddy Sunday)
13. От Гомера к Максу (Homer to the Max)
14. Я с Купидоном (I'm With Cupid)
15. Вопли сирены (Marge Simpson in: 'Screaming Yellow Honkers')
16. Освободите место Лизе (Make Room for Lisa)
17. Максимальный Гомердрайв (Maximum Homerdrive)
18. Библейские истории Симпсонов (Simpsons Bible Stories)
19. МАМУЛЯ и ПАПУЛЯрное искусство (Mom and Pop Art)
20. Старик и троечник (The Old Man and the 'C' Student)
21. Монти не может купить мне любовь (Monty Can't Buy Me Love)
22. Они спасли мозг Лизы (They Saved Lisa's Brain)
23. Тридцать минут над Токио (Thirty Minutes Over Tokyo )

11-й сезон

01. Ужасающая ошибка (Beyond Blunderdome)
02. Маленький помощник брата (Brother's Little Helper)
03. Угадайте, кто будет критиковать обеды? (Guess Who's Coming to Criticize Dinner?)
04. Дом ужасов X (Treehouse of Horror X)
05. И-Й-И-Й-(раздраженное ворчание) (E-I-E-I-(ANNOYED GRUNT))
06. Грязные Увлечения (Hello Gutter, Hello Fadder)
07. Восемь шалунов (Eight Misbehavin')
08. Бери мою жену, Слизняк (Take My Wife, Sleaze)
09. Печальное Чудо (Grift of the Magi)
10. Маленькая Большая Мама (Little Big Mom)
11. Без веры (Faith Off)
12. Семья в особняке (The Mansion Family)
13. Оседланная Галактика (Saddlesore Galactica)
14. Опять один, в натуре Ди-Дли (Alone Again, Natura-Diddily)
15. Миссионер: не выполним (Missionary Impossible)
16. ПигМОлиан (Pygmoelian)
17. Барт в будущем (Bart to the Future)
18. Дни вина и ругательств (Days of Wine D'Ohses)
19. Убей аллигатора и беги (Kill the Alligator and Run)
20. Последний стэп в Спрингфилде (Last Tap Dance in Springfield)
21. Эта безумная, безумная, безумная, безумная Мардж (It's a Mad, Mad, Mad, Mad Marge)
22. После смеха (Behind the Laughter)

12-й сезон

01. Домик ужасов XI (Treehouse of Horror XI)
02. История двух Спрингфилдов (A Tale of Two Springfields)
03. Ненормальный клоун (Insane Clown Poppy)
04. Лиза спасательница деревьев (Lisa the Tree Hugger)
05. Гомер против достоинства (Homer vs. Dignity)
06. Опасный компьютер (The Computer Wore Menace Shoes)
07. Великое похищение денег (The Great Money Caper)
08. Чувство снега Скиннера (Skinner's Sense of Snow)
09. ХОМР (HOMЯ)
10. Поке Мама (Pokeymom)
11. Самый худший эпизод (Worst Episode Ever)
12. Теннис проказник (Tennis the Menace)
13. День выскочки (Day of the Jackanapes)
14. Новые дети в районе (New Kids on the Blecch)
15. Голодный, голодный Гомер (Hungry, Hungry Homer)
16. Пока, зануда (Bye Bye Nerdie)
17. Сафари Симпсонов (Simpson Safari)
18. Трилогия ошибок (Trilogy of Error)
19. Я отправляюсь в богословенную зеллю (I'm Goin' to Praise Land)
20. Дети Меньшего Болвана (Children of a Lesser Clod)
21. Небылицы Спрингфилда (Simpsons Tall Tales)

13-й сезон

01. Дом Ужасов 12
02. постукивание родителей
03. Гомер „Мо“
04. влюблённый мистер Бернс
05. потерянные годы
06. она небольшой веры
07. скандал в семье
08. Мардж против сахара
09. сломанная челюсть
10. почти пристойное предложение
11. Барт знает, что хочет
12. последний пистолет на западе
13. старик и ключ
14. книжные истории
15. во всём виновата Лиза
16. Уикэнд у Бернси
17. дни шуток над Гомером
18. я яростный и жёлтый
19. добрый Апу
20. маленькая девочка во взрослой жизни
22. опасная игра
23. у папы новенький значок

14-й сезон

01. Дом Ужасов XIII
02. Как Я Бренчал на Летних Каникулах
03. Барт против Лизы и Третьего Класса
04. Крупная Мардж
05. Беспорядок в Приюте
06. Великий Детектив Вшей
07. Специальная Эдна
08. Папа, Который Знал Очень Мало
09. Сильные Оружия Мамы
10. Проси чего хочешь
11. Высочество Барт
12. Я говорю по буквам так быстро, как могу
13. Звезда рождается снова
14. Мистер Спритз едет в Вашингтон
15. С. Е. Чёрт
16. Извините, пока я Мисс Небо
17. Три парня Кондо
18. Парень, где моё ранчо?
19. Старое Вопящее Брюхо
20. Сломай мою жену, пожалуйста
21. Барт войны
22. Детский блюз Мо

15-й сезон

01. Костер Ламантинов
02. Девочка, которая слишком мало спала
03. Милхаус из песка и тумана
04. Дом Ужасов 16
05. Отравление сына Мардж
06. Смотри, Гомер бежит
07. Веселые помидорины
08. Итальянский Боб
09. Рождественские истории Симпсонов
10. История с настоящим отцом Гомера
11. Наша дорога — в Кудыкиногорск
12. Мой прекрасный ладди
13. Почти бесконечная история
14. У Барта две мамы
15. Гомер Симпсон - это твоя жена
16. Эйби на миллион
17. Гомер - божество
18. Самые мокрые из когда-либо рассказанных историй
19. Девочки просто хотят математики
20. Воссозданная Мардж
21. Обезьяний процесс
22. Название: Мардж и Гомер спасают чужой брак01. Дом Ужасов 14
02. Моя мама - похититель машин
03. Президент в жемчужном ожерелье
04. Монологи Регины
05. Толстый и пушистый
06. Сегодня я клоун
07. Это пятнадцатый сезон
08. Мардж против одиноких, стариков, бездетных пар, школоты и геев
09. я робот
10. роман безумной домохозяйки
11. волшебный экскурс в историю
12. Милхаус здесь больше не живет
13. Умная и еще умнее
14. Зифф, который пришёл на обед
15. День Созависимости
16. Барт в тюрьме
17. Моя большая жироприпадочная свадьба
18. По ймай их, если сможешь
19. человек-пирог
20. какими мы не были
21. Барт-портящий флаг
22. Новости мошенников

16-й сезон

01. Дом ужасов 15
02. война духовок
03. в постели с врагом
04. она была моей подругой
05. толстяк и малыш
06. полуночный приём
07. пивная мамочка
08. Гомер и аве мария Неда
09. шутник реппер
10. кое-что о свадьбе
11. ясным днём я не могу увидеть свою сестру
12. Сельма Симпсон
13. мобильный Гомер
14. тюремная крыса
15. драма будущего
16. не бойтесь кровельщика
17. ребёнок с разбитым сердцем
18. оборваная звезда
19. слава богу, это конец света
20. дом далеко от Гомера
21. отец, сын, и святая приглашённая звезда

17-й сезон

01. Костер Ламантинов
02. Девочка, которая слишком мало спала
03. Милхаус из песка и тумана
04. Дом Ужасов 16
05. Отравление сына Мардж
06. Смотри, Гомер бежит
07. Веселые помидорины
08. Итальянский Боб
09. Рождественские истории Симпсонов
10. История с настоящим отцом Гомера
11. Наша дорога — в Кудыкиногорск
12. Мой прекрасный ладди
13. Почти бесконечная история
14. У Барта две мамы
15. Гомер Симпсон - это твоя жена
16. Эйби на миллион
17. Гомер - божество
18. Самые мокрые из когда-либо рассказанных историй
19. Девочки просто хотят математики
20. Воссозданная Мардж
21. Обезьяний процесс
22. Название: Мардж и Гомер спасают чужой брак

18-й сезон

01. мафия, повар, жена и её Гомер
02. Джаз и кошкечки
03. пожалуйста Гомер не стучи
04. Дом Ужасов-17
05. Гомер в армии
06. Мо и Лиза
07. Морженное Мардж (с голубыми волосами)
08. Парочка ха-ха
09. Убить Джила. Том 1 и 2
10. жена моряка
11. три истории о мести
12. Маленькая большая девочка
13. подрастающий Спрингфилд
14. деревенские песняры
15. старик и уродина
16. Гомер папарацци
17. Мардж геймер
18. Барт неудачник
19. крюк и лестница
20. Стой или моя собака будет стрелять
21. 24 минуты
22. вы Кент всегда говорите что хотите

19-й сезон

01. взлёты и падения
02. Гомер оперный певец
03. полуночный буксировщик
04. не хочу знать почему птичка в клетке сидит
05. Дом ужасов-18
06. маленький сиротка Милхауз
07. мужья и ножи
08. похороны злодея
09. вечное сияние разума Симпсона
10. да здраввствует малыш Виггам
11. это было в 90-ых
12. любовь по Спрингфилдски
13. бартсступники
14. б значит ботаник
15. дым над дочуркой
16. папа не вымогай
17. коровий апокалипсис
18. случайный фестиваль
19. Мона умирает
20. всё о Лизе

20-й сезон

01. секс, торты и глупости
02. потерянный мобильник
03. дважды, две, малчишечьи проблемы
04. Дом Ужасов 19
05. опасная страсть
06. Гомер и Лиза обмениваются любезностями
07. майподы и динамит
08. Бернс и пчёлы
09. Лиза королева драмы
10. забери мою жизнь, пожалуйста
11. как был пройден тест
12. больше не каких кредиток
13. прощай Мегги, прощай
14. во имя дедушки
15. свадебная катастрофа
16. Эни Бени Мая Мо
17. хороший, грустный и обдолбанный
18. Папа Знает Хуже
19. Вэверли Хилз 9021-Д'оу
20. Четыре Великие Женщины И Маникюр
21. Прибытие В Гомерику

21-й сезон

01. Гомер Громила
02. Барт Получает 'Единицу'
03. Великая Супруга Надежды
04. Дом Ужасов XX
05. Дьявол Носит - Ничего
06. Шалости И Зелень
07. Деревенщины И Мётлы
08. О Брат, Где Же Ты Барт?
09. Четверги С Эйби
10. Однажды В Спрингфилде
11. Миллион Долларов, Может Быть
12. Мальчик Соответствует Кёрлингу
13. Цвета Жёлтого
14. Открытки С Клином
15. Укравший Первую Базу
16. Величайшие Истории Вечных Д'оу
17. Американская История
18. Начальник Сердца
19. Кит И Струи
20. Для Эпиднадзора С Любовью
21. Мо Пишет Блюз
22. Следующая дверь, Боб
23. Суди Меня Нежно

22-й сезон

01. Мюзикл начальной школы
02. Лиза — Инвестор
03. ДеньгоБарт
04. Дом ужасов 21
05. Лиза Симпсон, это не твоя жизнь
06. Глупец Монти
07. Что клевала птичка за окном?
08. Борьба перед Рождеством
09. Толстяк Донни
10. Мамаши, которых я хотел бы забыть
11. Пылающий Мо
12. Отец Гомер
13. Синие и серые
14. Злобный папа: фильм
15. Сказки Скорпиона
16. Милые летние мечты
17. Любовь-это удушающая вещь
18. Великая Симпсия
19. Реальные Домохозяйки Жирного Тони
20. Гомер Руки-Ножницы
21. 500 ключей
22. Лже-Похищение Неда

23-й сезон

01. Сокол и чёртов человек
02. Дух Рузвельтов унимает Барта
03.Дом ужасов 22
04. Вы заменимы
05. Жена-гурман
06. Работа над книгой
07. Человек в синих фланелевых брюках
08. Де-ся-ти-про-цент-ное-е решение
09. Пройденные праздники будущего
10. Политические неумехи с Гомером Симпсоном
11. Чёртова сеть
12. Мо идёт из грязи в князи
13. И восходит дочь
14. Наконец ушедшие
15. Выход через «На скорую руку»
16. Как я обмочил вашу маму
17. Они, робот
18. Остерегайся моего обмана Барт
19. Абсолютно весёлая вещь, которую Барт больше никогда не сделает
20. Шпион, который меня обучил
21. Нед и Эдна вместе
22. Лиза и Гага

24-й сезон

01. Moonshine River
02. Treehouse of Horror XXIII
03. Adventures in Baby-Getting
04. Gone Abie Gone
05. Penny-Wiseguys
06. A Tree Grows in Springfield
07. The Day the Earth Stood Cool
08. To Cur with Love
09. Homer Goes to Prep School
10. A Test Before Trying
11. The Changing of the Guardian
12. Love is a Many-Splintered Thing
13. Hardly Kirk-ing
14. Gorgeous Grampa
15. Black-Eyed, Please
16. Dark Knight Court
17. What Animated Women Want
18. Pulpit Friction
19. Whiskey Business
20. The Fabulous Faker Boy
21. The Saga of Carl
22. Dangers on a Train

1-й сезон

Полное имя : *\simpsons\01-й сезон\Simpsons 01x04 - Theres No Disgrace Like Home.avi
Формат : AVI
Формат/Информация : Audio Video Interleave
Размер файла : 151 Мбайт
Продолжительность : 22 м.
Общий поток : 946 Кбит/сек
Программа кодирования : VirtualDubMod 1.5.10.1 (build 2439/release)
Библиотека кодирования : VirtualDubMod build 2439/release
Видео
Идентификатор : 0
Формат : MPEG-4 Visual
Идентификатор кодека : DIV3
Идентификатор кодека/Подсказка : DivX 3 Low
Продолжительность : 22 м.
Битрейт : 704 Кбит/сек
Ширина : 512 пикс.
Высота : 384 пикс.
Соотношение сторон : 4:3
Частота кадров : 29,970 кадр/сек
Цветовое пространство : YUV
Подвыборка цветности : 4:2:0
Битовая глубина : 8 бит
Метод сжатия : С потерями
Бит/(Пиксели*Кадры) : 0.120
Размер потока : 113 Мбайт (74%)
Аудио #1
Идентификатор : 1
Формат : MPEG Audio
Версия формата : Version 1
Профиль формата : Layer 3
Идентификатор кодека : 55
Идентификатор кодека/Подсказка : MP3
Продолжительность : 22 м.
Вид битрейта : Постоянный
Битрейт : 64,0 Кбит/сек
Каналы : 1 канал
Частота : 44,1 КГц
Метод сжатия : С потерями
Задержка видео : 26 мс.
Размер потока : 10,2 Мбайт (7%)
Выравнивание : Разделение по промежуткам
Продолжительность промежутка : 33 мс. (1,00 видеокадр)
Время предзагрузки промежутка : 500 ms
Библиотека кодирования : LAME3.92
Аудио #2
Идентификатор : 2
Формат : MPEG Audio
Версия формата : Version 1
Профиль формата : Layer 3
Режим : Joint stereo
Расширение режима : MS Stereo
Идентификатор кодека : 55
Идентификатор кодека/Подсказка : MP3
Продолжительность : 22 м.
Вид битрейта : Постоянный
Битрейт : 160 Кбит/сек
Каналы : 2 канала
Частота : 48,0 КГц
Метод сжатия : С потерями
Размер потока : 25,6 Мбайт (17%)
Выравнивание : Разделение по промежуткам
Продолжительность промежутка : 33 мс. (1,00 видеокадр)
Время предзагрузки промежутка : 500 ms

2-й сезон

Полное имя : *\simpsons\02-й сезон\Simpsons 02x04 - Two Cars in Every Garage and Three Eyes on Every Fish.avi
Формат : AVI
Формат/Информация : Audio Video Interleave
Размер файла : 152 Мбайт
Продолжительность : 23 м.
Общий поток : 914 Кбит/сек
Программа кодирования : VirtualDubMod 1.5.10.1 (build 2439/release)
Библиотека кодирования : VirtualDubMod build 2439/release
Видео
Идентификатор : 0
Формат : MPEG-4 Visual
Идентификатор кодека : DIV3
Идентификатор кодека/Подсказка : DivX 3 Low
Продолжительность : 23 м.
Битрейт : 673 Кбит/сек
Ширина : 512 пикс.
Высота : 384 пикс.
Соотношение сторон : 4:3
Частота кадров : 29,970 кадр/сек
Цветовое пространство : YUV
Подвыборка цветности : 4:2:0
Битовая глубина : 8 бит
Метод сжатия : С потерями
Бит/(Пиксели*Кадры) : 0.114
Размер потока : 112 Мбайт (74%)
Аудио #1
Идентификатор : 1
Формат : MPEG Audio
Версия формата : Version 1
Профиль формата : Layer 3
Идентификатор кодека : 55
Идентификатор кодека/Подсказка : MP3
Продолжительность : 23 м.
Вид битрейта : Постоянный
Битрейт : 64,0 Кбит/сек
Каналы : 1 канал
Частота : 44,1 КГц
Метод сжатия : С потерями
Задержка видео : 26 мс.
Размер потока : 10,6 Мбайт (7%)
Выравнивание : Разделение по промежуткам
Продолжительность промежутка : 33 мс. (1,00 видеокадр)
Время предзагрузки промежутка : 500 ms
Библиотека кодирования : LAME3.92
Аудио #2
Идентификатор : 2
Формат : MPEG Audio
Версия формата : Version 1
Профиль формата : Layer 3
Режим : Joint stereo
Расширение режима : MS Stereo
Идентификатор кодека : 55
Идентификатор кодека/Подсказка : MP3
Продолжительность : 23 м.
Вид битрейта : Постоянный
Битрейт : 160 Кбит/сек
Каналы : 2 канала
Частота : 48,0 КГц
Метод сжатия : С потерями
Размер потока : 26,6 Мбайт (17%)
Выравнивание : Разделение по промежуткам
Продолжительность промежутка : 33 мс. (1,00 видеокадр)
Время предзагрузки промежутка : 500 ms

3-й сезон

Полное имя : *\simpsons\03-й сезон\Simpsons 03x04 - Bart the Murderer.avi
Формат : AVI
Формат/Информация : Audio Video Interleave
Размер файла : 152 Мбайт
Продолжительность : 22 м.
Общий поток : 923 Кбит/сек
Программа кодирования : VirtualDubMod 1.5.10.1 (build 2439/release)
Библиотека кодирования : VirtualDubMod build 2439/release
Видео
Идентификатор : 0
Формат : MPEG-4 Visual
Профиль формата : Advanced [email protected]
Параметр BVOP формата : 2
Параметр QPel формата : Да
Параметр GMC формата : Без точки перехода
Параметр матрицы формата : Default (H.263)
Идентификатор кодека : XVID
Идентификатор кодека/Подсказка : XviD
Продолжительность : 22 м.
Битрейт : 717 Кбит/сек
Ширина : 480 пикс.
Высота : 360 пикс.
Соотношение сторон : 4:3
Частота кадров : 23,976 кадр/сек
Цветовое пространство : YUV
Подвыборка цветности : 4:2:0
Битовая глубина : 8 бит
Тип развёртки : Прогрессивная
Метод сжатия : С потерями
Бит/(Пиксели*Кадры) : 0.173
Размер потока : 118 Мбайт (78%)
Библиотека кодирования : XviD 1.0.0 RC4 (Hola) (UTC 2004-04-05)
Аудио #1
Идентификатор : 1
Формат : MPEG Audio
Версия формата : Version 1
Профиль формата : Layer 3
Идентификатор кодека : 55
Идентификатор кодека/Подсказка : MP3
Продолжительность : 22 м.
Вид битрейта : Постоянный
Битрейт : 64,0 Кбит/сек
Каналы : 1 канал
Частота : 44,1 КГц
Метод сжатия : С потерями
Задержка видео : 26 мс.
Размер потока : 10,5 Мбайт (7%)
Выравнивание : Разделение по промежуткам
Продолжительность промежутка : 42 мс. (1,00 видеокадр)
Время предзагрузки промежутка : 500 ms
Аудио #2
Идентификатор : 2
Формат : MPEG Audio
Версия формата : Version 1
Профиль формата : Layer 3
Режим : Joint stereo
Расширение режима : MS Stereo
Идентификатор кодека : 55
Идентификатор кодека/Подсказка : MP3
Продолжительность : 22 м.
Вид битрейта : Постоянный
Битрейт : 128 Кбит/сек
Каналы : 2 канала
Частота : 48,0 КГц
Метод сжатия : С потерями
Размер потока : 21,0 Мбайт (14%)
Выравнивание : Разделение по промежуткам
Продолжительность промежутка : 42 мс. (1,00 видеокадр)
Время предзагрузки промежутка : 500 ms

4-й сезон

Полное имя : *\simpsons\04-й сезон\Simpsons 04x04 - Lisa the Beauty Queen.avi
Формат : AVI
Формат/Информация : Audio Video Interleave
Размер файла : 171 Мбайт
Продолжительность : 23 м.
Общий поток : 1037 Кбит/сек
Программа кодирования : VirtualDubMod 1.5.10.2 (build 2542/release)
Библиотека кодирования : VirtualDubMod build 2542/release
Видео
Идентификатор : 0
Формат : MPEG-4 Visual
Профиль формата : Advanced [email protected]
Параметр BVOP формата : 2
Параметр QPel формата : Нет
Параметр GMC формата : Без точки перехода
Параметр матрицы формата : Default (H.263)
Идентификатор кодека : XVID
Идентификатор кодека/Подсказка : XviD
Продолжительность : 23 м.
Битрейт : 831 Кбит/сек
Ширина : 480 пикс.
Высота : 360 пикс.
Соотношение сторон : 4:3
Частота кадров : 23,976 кадр/сек
Цветовое пространство : YUV
Подвыборка цветности : 4:2:0
Битовая глубина : 8 бит
Тип развёртки : Прогрессивная
Метод сжатия : С потерями
Бит/(Пиксели*Кадры) : 0.201
Размер потока : 137 Мбайт (80%)
Библиотека кодирования : XviD 1.0.1 (UTC 2004-06-05)
Аудио #1
Идентификатор : 1
Формат : MPEG Audio
Версия формата : Version 1
Профиль формата : Layer 3
Идентификатор кодека : 55
Идентификатор кодека/Подсказка : MP3
Продолжительность : 23 м.
Вид битрейта : Постоянный
Битрейт : 64,0 Кбит/сек
Каналы : 1 канал
Частота : 44,1 КГц
Метод сжатия : С потерями
Задержка видео : 26 мс.
Размер потока : 10,5 Мбайт (6%)
Выравнивание : Разделение по промежуткам
Продолжительность промежутка : 42 мс. (1,00 видеокадр)
Время предзагрузки промежутка : 500 ms
Библиотека кодирования : LAME3.92
Аудио #2
Идентификатор : 2
Формат : MPEG Audio
Версия формата : Version 1
Профиль формата : Layer 3
Идентификатор кодека : 55
Идентификатор кодека/Подсказка : MP3
Продолжительность : 23 м.
Вид битрейта : Постоянный
Битрейт : 128 Кбит/сек
Каналы : 2 канала
Частота : 44,1 КГц
Метод сжатия : С потерями
Задержка видео : 26 мс.
Размер потока : 21,1 Мбайт (12%)
Выравнивание : Разделение по промежуткам
Продолжительность промежутка : 42 мс. (1,00 видеокадр)
Время предзагрузки промежутка : 500 ms

5-й сезон

Полное имя : *:\simpsons\05-й сезон\S05E04 - Rosebud.avi
Формат : AVI
Формат/Информация : Audio Video Interleave
Размер файла : 167 Мбайт
Продолжительность : 22 м.
Общий поток : 1016 Кбит/сек
Программа кодирования : VirtualDubMod 1.5.10.1 (build 2439/release)
Библиотека кодирования : VirtualDubMod build 2439/release
Видео
Идентификатор : 0
Формат : MPEG-4 Visual
Профиль формата : Advanced [email protected]
Параметр BVOP формата : 1
Параметр QPel формата : Нет
Параметр GMC формата : Без точки перехода
Параметр матрицы формата : Выборочная
Идентификатор кодека : XVID
Идентификатор кодека/Подсказка : XviD
Продолжительность : 22 м.
Битрейт : 778 Кбит/сек
Ширина : 512 пикс.
Высота : 384 пикс.
Соотношение сторон : 4:3
Частота кадров : 23,976 кадр/сек
Цветовое пространство : YUV
Подвыборка цветности : 4:2:0
Битовая глубина : 8 бит
Тип развёртки : Прогрессивная
Метод сжатия : С потерями
Бит/(Пиксели*Кадры) : 0.165
Размер потока : 128 Мбайт (77%)
Библиотека кодирования : XviD 0039 build=2005.09.25 (UTC 2005-09-25)
Аудио #1
Идентификатор : 1
Формат : MPEG Audio
Версия формата : Version 1
Профиль формата : Layer 3
Идентификатор кодека : 55
Идентификатор кодека/Подсказка : MP3
Продолжительность : 22 м.
Вид битрейта : Постоянный
Битрейт : 96,0 Кбит/сек
Каналы : 1 канал
Частота : 44,1 КГц
Метод сжатия : С потерями
Задержка видео : 26 мс.
Размер потока : 15,8 Мбайт (9%)
Выравнивание : Разделение по промежуткам
Продолжительность промежутка : 42 мс. (1,00 видеокадр)
Время предзагрузки промежутка : 500 ms
Библиотека кодирования : LAME3.92
Аудио #2
Идентификатор : 2
Формат : MPEG Audio
Версия формата : Version 1
Профиль формата : Layer 3
Идентификатор кодека : 55
Идентификатор кодека/Подсказка : MP3
Продолжительность : 22 м.
Вид битрейта : Постоянный
Битрейт : 128 Кбит/сек
Каналы : 2 канала
Частота : 44,1 КГц
Метод сжатия : С потерями
Задержка видео : 26 мс.
Размер потока : 21,0 Мбайт (13%)
Выравнивание : Разделение по промежуткам
Продолжительность промежутка : 42 мс. (1,00 видеокадр)
Время предзагрузки промежутка : 500 ms
Библиотека кодирования : LAME3.92

6-й сезон

Полное имя : *\simpsons\06-й сезон\S06E04 - Itchy and Scratchy Land.avi
Формат : AVI
Формат/Информация : Audio Video Interleave
Размер файла : 162 Мбайт
Продолжительность : 22 м.
Общий поток : 989 Кбит/сек
Программа кодирования : VirtualDubMod 1.5.10.1 (build 2439/release)
Библиотека кодирования : VirtualDubMod build 2439/release
Видео
Идентификатор : 0
Формат : MPEG-4 Visual
Профиль формата : Advanced [email protected]
Параметр BVOP формата : 1
Параметр QPel формата : Нет
Параметр GMC формата : Без точки перехода
Параметр матрицы формата : Выборочная
Идентификатор кодека : XVID
Идентификатор кодека/Подсказка : XviD
Продолжительность : 22 м.
Битрейт : 782 Кбит/сек
Ширина : 512 пикс.
Высота : 384 пикс.
Соотношение сторон : 4:3
Частота кадров : 23,976 кадр/сек
Цветовое пространство : YUV
Подвыборка цветности : 4:2:0
Битовая глубина : 8 бит
Тип развёртки : Прогрессивная
Метод сжатия : С потерями
Бит/(Пиксели*Кадры) : 0.166
Размер потока : 128 Мбайт (79%)
Библиотека кодирования : XviD 0039 build=2005.09.25 (UTC 2005-09-25)
Аудио #1
Идентификатор : 1
Формат : MPEG Audio
Версия формата : Version 1
Профиль формата : Layer 3
Идентификатор кодека : 55
Идентификатор кодека/Подсказка : MP3
Продолжительность : 22 м.
Вид битрейта : Постоянный
Битрейт : 64,0 Кбит/сек
Каналы : 1 канал
Частота : 44,1 КГц
Метод сжатия : С потерями
Задержка видео : 26 мс.
Размер потока : 10,5 Мбайт (6%)
Выравнивание : Разделение по промежуткам
Продолжительность промежутка : 42 мс. (1,00 видеокадр)
Время предзагрузки промежутка : 500 ms
Библиотека кодирования : LAME3.92
Аудио #2
Идентификатор : 2
Формат : MPEG Audio
Версия формата : Version 1
Профиль формата : Layer 3
Идентификатор кодека : 55
Идентификатор кодека/Подсказка : MP3
Продолжительность : 22 м.
Вид битрейта : Постоянный
Битрейт : 128 Кбит/сек
Каналы : 2 канала
Частота : 44,1 КГц
Метод сжатия : С потерями
Задержка видео : 26 мс.
Размер потока : 21,0 Мбайт (13%)
Выравнивание : Разделение по промежуткам
Продолжительность промежутка : 42 мс. (1,00 видеокадр)
Время предзагрузки промежутка : 500 ms
Библиотека кодирования : LAME3.92

7-й сезон

Полное имя : *\simpsons\07-й сезон\S07E04 - Bart Sells his Soul.avi
Формат : AVI
Формат/Информация : Audio Video Interleave
Размер файла : 167 Мбайт
Продолжительность : 22 м.
Общий поток : 1025 Кбит/сек
Программа кодирования : VirtualDubMod 1.5.10.1 (build 2439/release)
Библиотека кодирования : VirtualDubMod build 2439/release
Видео
Идентификатор : 0
Формат : MPEG-4 Visual
Профиль формата : Advanced [email protected]
Параметр BVOP формата : 1
Параметр QPel формата : Нет
Параметр GMC формата : Без точки перехода
Параметр матрицы формата : Выборочная
Идентификатор кодека : XVID
Идентификатор кодека/Подсказка : XviD
Продолжительность : 22 м.
Битрейт : 848 Кбит/сек
Ширина : 512 пикс.
Высота : 384 пикс.
Соотношение сторон : 4:3
Частота кадров : 29,970 кадр/сек
Цветовое пространство : YUV
Подвыборка цветности : 4:2:0
Битовая глубина : 8 бит
Тип развёртки : Прогрессивная
Метод сжатия : С потерями
Бит/(Пиксели*Кадры) : 0.144
Размер потока : 138 Мбайт (83%)
Библиотека кодирования : XviD 1.1.0 (UTC 2005-11-22)
Аудио #1
Идентификатор : 1
Формат : MPEG Audio
Версия формата : Version 1
Профиль формата : Layer 3
Идентификатор кодека : 55
Идентификатор кодека/Подсказка : MP3
Продолжительность : 22 м.
Вид битрейта : Постоянный
Битрейт : 64,0 Кбит/сек
Каналы : 1 канал
Частота : 44,1 КГц
Метод сжатия : С потерями
Задержка видео : 26 мс.
Размер потока : 10,4 Мбайт (6%)
Выравнивание : Разделение по промежуткам
Продолжительность промежутка : 33 мс. (1,00 видеокадр)
Время предзагрузки промежутка : 500 ms
Библиотека кодирования : LAME3.92
Аудио #2
Идентификатор : 2
Формат : MPEG Audio
Версия формата : Version 1
Профиль формата : Layer 3
Идентификатор кодека : 55
Идентификатор кодека/Подсказка : MP3
Продолжительность : 22 м.
Вид битрейта : Постоянный
Битрейт : 96,0 Кбит/сек
Каналы : 2 канала
Частота : 32,0 КГц
Метод сжатия : С потерями
Задержка видео : 36 мс.
Размер потока : 15,6 Мбайт (9%)
Выравнивание : Соединение по промежуткам
Продолжительность промежутка : 36 мс. (1,08 видеокадр)
Время предзагрузки промежутка : 504 ms

8-й сезон

Полное имя : *\simpsons\08-й сезон\S08E04 - Burns, Baby Burns.avi
Формат : AVI
Формат/Информация : Audio Video Interleave
Размер файла : 178 Мбайт
Продолжительность : 22 м.
Общий поток : 1089 Кбит/сек
Программа кодирования : VirtualDubMod 1.5.10.1 (build 2439/release)
Библиотека кодирования : VirtualDubMod build 2439/release
Видео
Идентификатор : 0
Формат : MPEG-4 Visual
Профиль формата : Advanced [email protected]
Параметр BVOP формата : 1
Параметр QPel формата : Нет
Параметр GMC формата : Без точки перехода
Параметр матрицы формата : Выборочная
Идентификатор кодека : XVID
Идентификатор кодека/Подсказка : XviD
Продолжительность : 22 м.
Битрейт : 947 Кбит/сек
Ширина : 512 пикс.
Высота : 384 пикс.
Соотношение сторон : 4:3
Частота кадров : 23,976 кадр/сек
Цветовое пространство : YUV
Подвыборка цветности : 4:2:0
Битовая глубина : 8 бит
Тип развёртки : Прогрессивная
Метод сжатия : С потерями
Бит/(Пиксели*Кадры) : 0.201
Размер потока : 155 Мбайт (87%)
Библиотека кодирования : XviD 1.2.0SMP (UTC 2006-01-08)
Аудио #1
Идентификатор : 1
Формат : MPEG Audio
Версия формата : Version 1
Профиль формата : Layer 3
Идентификатор кодека : 55
Идентификатор кодека/Подсказка : MP3
Продолжительность : 22 м.
Вид битрейта : Постоянный
Битрейт : 64,0 Кбит/сек
Каналы : 1 канал
Частота : 44,1 КГц
Метод сжатия : С потерями
Размер потока : 10,4 Мбайт (6%)
Выравнивание : Разделение по промежуткам
Продолжительность промежутка : 42 мс. (1,00 видеокадр)
Время предзагрузки промежутка : 500 ms
Библиотека кодирования : LAME3.96.1
Аудио #2
Идентификатор : 2
Формат : MPEG Audio
Версия формата : Version 1
Профиль формата : Layer 3
Режим : Joint stereo
Расширение режима : MS Stereo
Идентификатор кодека : 55
Идентификатор кодека/Подсказка : MP3
Продолжительность : 22 м.
Вид битрейта : Постоянный
Битрейт : 64,0 Кбит/сек
Каналы : 2 канала
Частота : 32,0 КГц
Метод сжатия : С потерями
Размер потока : 10,4 Мбайт (6%)
Выравнивание : Соединение по промежуткам
Продолжительность промежутка : 42 мс. (1,00 видеокадр)
Время предзагрузки промежутка : 504 ms
Библиотека кодирования : LAMEЄЄL

9-й сезон

Полное имя : *\simpsons\09-й сезон\S09E04 - Treehouse of Horror VIII.avi
Формат : AVI
Формат/Информация : Audio Video Interleave
Размер файла : 181 Мбайт
Продолжительность : 22 м.
Общий поток : 1105 Кбит/сек
Программа кодирования : VirtualDubMod 1.5.10.2 (build 2542/release)
Библиотека кодирования : VirtualDubMod build 2542/release
Видео
Идентификатор : 0
Формат : MPEG-4 Visual
Профиль формата : Advanced [email protected]
Параметр BVOP формата : 1
Параметр QPel формата : Нет
Параметр GMC формата : Без точки перехода
Параметр матрицы формата : Выборочная
Идентификатор кодека : XVID
Идентификатор кодека/Подсказка : XviD
Продолжительность : 22 м.
Битрейт : 947 Кбит/сек
Ширина : 512 пикс.
Высота : 384 пикс.
Соотношение сторон : 4:3
Частота кадров : 23,976 кадр/сек
Цветовое пространство : YUV
Подвыборка цветности : 4:2:0
Битовая глубина : 8 бит
Тип развёртки : Прогрессивная
Метод сжатия : С потерями
Бит/(Пиксели*Кадры) : 0.201
Размер потока : 155 Мбайт (86%)
Библиотека кодирования : XviD 1.2.0.dev47 (UTC 2006-11-01)
Аудио #1
Идентификатор : 1
Формат : MPEG Audio
Версия формата : Version 1
Профиль формата : Layer 3
Идентификатор кодека : 55
Идентификатор кодека/Подсказка : MP3
Продолжительность : 22 м.
Вид битрейта : Постоянный
Битрейт : 64,0 Кбит/сек
Каналы : 1 канал
Частота : 44,1 КГц
Метод сжатия : С потерями
Задержка видео : 26 мс.
Размер потока : 10,5 Мбайт (6%)
Выравнивание : Разделение по промежуткам
Продолжительность промежутка : 42 мс. (1,00 видеокадр)
Время предзагрузки промежутка : 500 ms
Библиотека кодирования : LAME3.92
Аудио #2
Идентификатор : 2
Формат : MPEG Audio
Версия формата : Version 1
Профиль формата : Layer 3
Идентификатор кодека : 55
Идентификатор кодека/Подсказка : MP3
Продолжительность : 22 м.
Вид битрейта : Постоянный
Битрейт : 80,0 Кбит/сек
Каналы : 2 канала
Частота : 32,0 КГц
Метод сжатия : С потерями
Задержка видео : 36 мс.
Размер потока : 13,1 Мбайт (7%)
Выравнивание : Соединение по промежуткам
Продолжительность промежутка : 42 мс. (1,00 видеокадр)
Время предзагрузки промежутка : 504 ms

10-й сезон

Полное имя : *\simpsons\10-й сезон\Simpsons 10x04 - Treehouse of Horror IX.avi
Формат : AVI
Формат/Информация : Audio Video Interleave
Размер файла : 192 Мбайт
Продолжительность : 22 м.
Общий поток : 1174 Кбит/сек
Программа кодирования : VirtualDubMod 1.5.10.2 (build 2542/release)
Библиотека кодирования : VirtualDubMod build 2542/release
Видео
Идентификатор : 0
Формат : MPEG-4 Visual
Профиль формата : Advanced [email protected]
Параметр BVOP формата : 2
Параметр QPel формата : Нет
Параметр GMC формата : Без точки перехода
Параметр матрицы формата : Default (H.263)
Режим смешивания : Сжатый битовый поток
Идентификатор кодека : XVID
Идентификатор кодека/Подсказка : XviD
Продолжительность : 22 м.
Битрейт : 926 Кбит/сек
Ширина : 576 пикс.
Высота : 432 пикс.
Соотношение сторон : 4:3
Частота кадров : 23,976 кадр/сек
Цветовое пространство : YUV
Подвыборка цветности : 4:2:0
Битовая глубина : 8 бит
Тип развёртки : Прогрессивная
Метод сжатия : С потерями
Бит/(Пиксели*Кадры) : 0.155
Размер потока : 151 Мбайт (79%)
Библиотека кодирования : XviD 1.2.0SMP (UTC 2006-01-08)
Аудио #1
Идентификатор : 1
Формат : MPEG Audio
Версия формата : Version 1
Профиль формата : Layer 3
Идентификатор кодека : 55
Идентификатор кодека/Подсказка : MP3
Продолжительность : 22 м.
Вид битрейта : Постоянный
Битрейт : 96,0 Кбит/сек
Каналы : 2 канала
Частота : 32,0 КГц
Метод сжатия : С потерями
Задержка видео : 36 мс.
Размер потока : 15,7 Мбайт (8%)
Выравнивание : Соединение по промежуткам
Продолжительность промежутка : 42 мс. (1,00 видеокадр)
Время предзагрузки промежутка : 504 ms
Библиотека кодирования : LAME3.92
Аудио #2
Идентификатор : 2
Формат : MPEG Audio
Версия формата : Version 1
Профиль формата : Layer 3
Режим : Joint stereo
Расширение режима : MS Stereo
Идентификатор кодека : 55
Идентификатор кодека/Подсказка : MP3
Продолжительность : 22 м.
Вид битрейта : Переменный
Битрейт : 135 Кбит/сек
Каналы : 2 канала
Частота : 48,0 КГц
Метод сжатия : С потерями
Задержка видео : 8 мс.
Размер потока : 22,1 Мбайт (12%)
Выравнивание : Соединение по промежуткам
Продолжительность промежутка : 24 мс. (0,58 видеокадр)
Время предзагрузки промежутка : 380 ms
Библиотека кодирования : LAME3.96.1ЄЄЄЄЄЄЄЄЄЄ

11-й сезон

Полное имя : *\simpsons\11-й сезон\Simpsons 11x04 - Treehouse of Horror X.avi
Формат : AVI
Формат/Информация : Audio Video Interleave
Размер файла : 148 Мбайт
Продолжительность : 21 м.
Общий поток : 966 Кбит/сек
Программа кодирования : VirtualDubMod 1.5.10.2 (build 2542/release)
Библиотека кодирования : VirtualDubMod build 2542/release
Видео
Идентификатор : 0
Формат : MPEG-4 Visual
Профиль формата : Advanced [email protected]
Параметр BVOP формата : 1
Параметр QPel формата : Нет
Параметр GMC формата : Без точки перехода
Параметр матрицы формата : Выборочная
Идентификатор кодека : XVID
Идентификатор кодека/Подсказка : XviD
Продолжительность : 21 м.
Битрейт : 759 Кбит/сек
Ширина : 640 пикс.
Высота : 480 пикс.
Соотношение сторон : 4:3
Частота кадров : 25,000 кадр/сек
Цветовое пространство : YUV
Подвыборка цветности : 4:2:0
Битовая глубина : 8 бит
Тип развёртки : Прогрессивная
Метод сжатия : С потерями
Бит/(Пиксели*Кадры) : 0.099
Размер потока : 117 Мбайт (79%)
Библиотека кодирования : XviD 0039 build=2005.09.25 (UTC 2005-09-25)
Аудио #1
Идентификатор : 1
Формат : MPEG Audio
Версия формата : Version 1
Профиль формата : Layer 3
Идентификатор кодека : 55
Идентификатор кодека/Подсказка : MP3
Продолжительность : 21 м.
Вид битрейта : Постоянный
Битрейт : 96,0 Кбит/сек
Каналы : 1 канал
Частота : 44,1 КГц
Метод сжатия : С потерями
Задержка видео : 26 мс.
Размер потока : 14,7 Мбайт (10%)
Выравнивание : Разделение по промежуткам
Продолжительность промежутка : 40 мс. (1,00 видеокадр)
Время предзагрузки промежутка : 500 ms
Библиотека кодирования : LAME3.92
Аудио #2
Идентификатор : 2
Формат : MPEG Audio
Версия формата : Version 1
Профиль формата : Layer 3
Идентификатор кодека : 55
Идентификатор кодека/Подсказка : MP3
Продолжительность : 21 м.
Вид битрейта : Постоянный
Битрейт : 96,0 Кбит/сек
Каналы : 2 канала
Частота : 32,0 КГц
Метод сжатия : С потерями
Задержка видео : 36 мс.
Размер потока : 14,7 Мбайт (10%)
Выравнивание : Соединение по промежуткам
Продолжительность промежутка : 40 мс. (1,00 видеокадр)
Время предзагрузки промежутка : 504 ms
Библиотека кодирования : LAME3.92

12-й сезон

Полное имя : *\simpsons\12-й сезон\Simpsons 12x04 - Lisa The Tree Hugger.avi
Формат : AVI
Формат/Информация : Audio Video Interleave
Размер файла : 208 Мбайт
Продолжительность : 21 м.
Общий поток : 1348 Кбит/сек
Программа кодирования : VirtualDubMod 1.5.10.2 (build 2542/release)
Библиотека кодирования : VirtualDubMod build 2542/release
Видео
Идентификатор : 0
Формат : MPEG-4 Visual
Профиль формата : Advanced [email protected]
Параметр BVOP формата : 1
Параметр QPel формата : Нет
Параметр GMC формата : Без точки перехода
Параметр матрицы формата : Выборочная
Идентификатор кодека : XVID
Идентификатор кодека/Подсказка : XviD
Продолжительность : 21 м.
Битрейт : 1210 Кбит/сек
Ширина : 640 пикс.
Высота : 480 пикс.
Соотношение сторон : 4:3
Частота кадров : 25,000 кадр/сек
Цветовое пространство : YUV
Подвыборка цветности : 4:2:0
Битовая глубина : 8 бит
Тип развёртки : Прогрессивная
Метод сжатия : С потерями
Бит/(Пиксели*Кадры) : 0.158
Размер потока : 187 Мбайт (90%)
Библиотека кодирования : XviD 1.1.0 (UTC 2005-11-22)
Аудио
Идентификатор : 1
Формат : MPEG Audio
Версия формата : Version 1
Профиль формата : Layer 3
Идентификатор кодека : 55
Идентификатор кодека/Подсказка : MP3
Продолжительность : 21 м.
Вид битрейта : Постоянный
Битрейт : 128 Кбит/сек
Каналы : 2 канала
Частота : 44,1 КГц
Метод сжатия : С потерями
Задержка видео : 26 мс.
Размер потока : 19,7 Мбайт (9%)
Выравнивание : Разделение по промежуткам
Продолжительность промежутка : 40 мс. (1,00 видеокадр)
Время предзагрузки промежутка : 500 ms

13-й сезон

Полное имя : *\simpsons\13-й сезон\Simpsons 13x04 - Hunka Hunka Burns in Love.avi
Формат : AVI
Формат/Информация : Audio Video Interleave
Размер файла : 198 Мбайт
Продолжительность : 21 м.
Общий поток : 1276 Кбит/сек
Программа кодирования : VirtualDubMod 1.5.10.2 (build 2542/release)
Библиотека кодирования : VirtualDubMod build 2542/release
Видео
Идентификатор : 0
Формат : MPEG-4 Visual
Профиль формата : Advanced [email protected]
Параметр BVOP формата : 1
Параметр QPel формата : Нет
Параметр GMC формата : Без точки перехода
Параметр матрицы формата : Выборочная
Идентификатор кодека : XVID
Идентификатор кодека/Подсказка : XviD
Продолжительность : 21 м.
Битрейт : 1138 Кбит/сек
Ширина : 640 пикс.
Высота : 480 пикс.
Соотношение сторон : 4:3
Частота кадров : 25,000 кадр/сек
Цветовое пространство : YUV
Подвыборка цветности : 4:2:0
Битовая глубина : 8 бит
Тип развёртки : Прогрессивная
Метод сжатия : С потерями
Бит/(Пиксели*Кадры) : 0.148
Размер потока : 176 Мбайт (89%)
Библиотека кодирования : XviD 1.1.0 (UTC 2005-11-22)
Аудио
Идентификатор : 1
Формат : MPEG Audio
Версия формата : Version 1
Профиль формата : Layer 3
Идентификатор кодека : 55
Идентификатор кодека/Подсказка : MP3
Продолжительность : 21 м.
Вид битрейта : Постоянный
Битрейт : 128 Кбит/сек
Каналы : 2 канала
Частота : 44,1 КГц
Метод сжатия : С потерями
Задержка видео : 26 мс.
Размер потока : 19,8 Мбайт (10%)
Выравнивание : Разделение по промежуткам
Продолжительность промежутка : 40 мс. (1,00 видеокадр)
Время предзагрузки промежутка : 500 ms
Библиотека кодирования : LAME3.92

14-й сезон

Полное имя : *\simpsons\14-й сезон\Simpsons 14x04 - Large Marge.avi
Формат : AVI
Формат/Информация : Audio Video Interleave
Размер файла : 204 Мбайт
Продолжительность : 21 м.
Общий поток : 1321 Кбит/сек
Программа кодирования : VirtualDubMod 1.5.10.2 (build 2542/release)
Библиотека кодирования : VirtualDubMod build 2542/release
Видео
Идентификатор : 0
Формат : MPEG-4 Visual
Параметр BVOP формата : 1
Параметр QPel формата : Нет
Параметр GMC формата : Без точки перехода
Параметр матрицы формата : Default (H.263)
Режим смешивания : Сжатый битовый поток
Идентификатор кодека : DX50
Идентификатор кодека/Подсказка : DivX 5
Продолжительность : 21 м.
Битрейт : 1183 Кбит/сек
Ширина : 560 пикс.
Высота : 420 пикс.
Соотношение сторон : 4:3
Частота кадров : 25,000 кадр/сек
Цветовое пространство : YUV
Подвыборка цветности : 4:2:0
Битовая глубина : 8 бит
Тип развёртки : Прогрессивная
Метод сжатия : С потерями
Бит/(Пиксели*Кадры) : 0.201
Размер потока : 183 Мбайт (90%)
Библиотека кодирования : DivX 5.1.1 (Maupiti) (UTC 2003-11-19)
Аудио
Идентификатор : 1
Формат : MPEG Audio
Версия формата : Version 1
Профиль формата : Layer 3
Режим : Joint stereo
Расширение режима : MS Stereo
Идентификатор кодека : 55
Идентификатор кодека/Подсказка : MP3
Продолжительность : 21 м.
Вид битрейта : Постоянный
Битрейт : 128 Кбит/сек
Каналы : 2 канала
Частота : 44,1 КГц
Метод сжатия : С потерями
Размер потока : 19,8 Мбайт (10%)
Выравнивание : Разделение по промежуткам
Продолжительность промежутка : 40 мс. (1,00 видеокадр)
Время предзагрузки промежутка : 500 ms
Библиотека кодирования : LAME3.96.1

15-й сезон

Полное имя : *\simpsons\15-й сезон\Simpsons 15x04 - The Regina Monologues.avi
Формат : AVI
Формат/Информация : Audio Video Interleave
Размер файла : 196 Мбайт
Продолжительность : 21 м.
Общий поток : 1300 Кбит/сек
Программа кодирования : VirtualDubMod 1.5.10.2 (build 2542/release)
Библиотека кодирования : VirtualDubMod build 2542/release
Видео
Идентификатор : 0
Формат : MPEG-4 Visual
Профиль формата : Advanced [email protected]
Параметр BVOP формата : 2
Параметр QPel формата : Нет
Параметр GMC формата : Без точки перехода
Параметр матрицы формата : Default (H.263)
Режим смешивания : Сжатый битовый поток
Идентификатор кодека : XVID
Идентификатор кодека/Подсказка : XviD
Продолжительность : 21 м.
Битрейт : 993 Кбит/сек
Ширина : 576 пикс.
Высота : 432 пикс.
Соотношение сторон : 4:3
Частота кадров : 25,000 кадр/сек
Цветовое пространство : YUV
Подвыборка цветности : 4:2:0
Битовая глубина : 8 бит
Тип развёртки : Прогрессивная
Метод сжатия : С потерями
Бит/(Пиксели*Кадры) : 0.160
Размер потока : 149 Мбайт (76%)
Библиотека кодирования : XviD 1.0.1 (UTC 2004-06-05)
Аудио #1
Идентификатор : 1
Формат : MPEG Audio
Версия формата : Version 1
Профиль формата : Layer 3
Идентификатор кодека : 55
Идентификатор кодека/Подсказка : MP3
Продолжительность : 21 м.
Вид битрейта : Постоянный
Битрейт : 64,0 Кбит/сек
Каналы : 1 канал
Частота : 44,1 КГц
Метод сжатия : С потерями
Задержка видео : 26 мс.
Размер потока : 9,63 Мбайт (5%)
Выравнивание : Разделение по промежуткам
Продолжительность промежутка : 40 мс. (1,00 видеокадр)
Время предзагрузки промежутка : 500 ms
Аудио #2
Идентификатор : 2
Формат : MPEG Audio
Версия формата : Version 1
Профиль формата : Layer 3
Идентификатор кодека : 55
Идентификатор кодека/Подсказка : MP3
Продолжительность : 21 м.
Вид битрейта : Постоянный
Битрейт : 96,0 Кбит/сек
Каналы : 2 канала
Частота : 32,0 КГц
Метод сжатия : С потерями
Задержка видео : 36 мс.
Размер потока : 14,4 Мбайт (7%)
Выравнивание : Соединение по промежуткам
Продолжительность промежутка : 40 мс. (1,00 видеокадр)
Время предзагрузки промежутка : 504 ms
Библиотека кодирования : LAME3.92
Аудио #3
Идентификатор : 3
Формат : MPEG Audio
Версия формата : Version 1
Профиль формата : Layer 3
Режим : Joint stereo
Идентификатор кодека : 55
Идентификатор кодека/Подсказка : MP3
Продолжительность : 21 м.
Вид битрейта : Постоянный
Битрейт : 128 Кбит/сек
Каналы : 2 канала
Частота : 48,0 КГц
Метод сжатия : С потерями
Размер потока : 19,3 Мбайт (10%)
Выравнивание : Разделение по промежуткам
Продолжительность промежутка : 40 мс. (1,00 видеокадр)
Время предзагрузки промежутка : 500 ms

16-й сезон

Полное имя : *\simpsons\16-й сезон\simps16x04 - She Used to Be My Girl.avi
Формат : AVI
Формат/Информация : Audio Video Interleave
Размер файла : 191 Мбайт
Продолжительность : 21 м.
Общий поток : 1220 Кбит/сек
Программа кодирования : VirtualDubMod 1.5.10.1 (build 2439/release)
Библиотека кодирования : VirtualDubMod build 2439/release
Видео
Идентификатор : 0
Формат : MPEG-4 Visual
Профиль формата : Advanced [email protected]
Параметр BVOP формата : 2
Параметр QPel формата : Нет
Параметр GMC формата : Без точки перехода
Параметр матрицы формата : Default (H.263)
Режим смешивания : Сжатый битовый поток
Идентификатор кодека : XVID
Идентификатор кодека/Подсказка : XviD
Продолжительность : 21 м.
Битрейт : 982 Кбит/сек
Ширина : 512 пикс.
Высота : 384 пикс.
Соотношение сторон : 4:3
Частота кадров : 23,976 кадр/сек
Цветовое пространство : YUV
Подвыборка цветности : 4:2:0
Битовая глубина : 8 бит
Тип развёртки : Прогрессивная
Метод сжатия : С потерями
Бит/(Пиксели*Кадры) : 0.208
Размер потока : 153 Мбайт (80%)
Библиотека кодирования : XviD 1.0.2 (UTC 2004-08-29)
Аудио #1
Идентификатор : 1
Формат : MPEG Audio
Версия формата : Version 1
Профиль формата : Layer 3
Идентификатор кодека : 55
Идентификатор кодека/Подсказка : MP3
Продолжительность : 21 м.
Вид битрейта : Постоянный
Битрейт : 96,0 Кбит/сек
Каналы : 1 канал
Частота : 44,1 КГц
Метод сжатия : С потерями
Задержка видео : 26 мс.
Размер потока : 15,0 Мбайт (8%)
Выравнивание : Разделение по промежуткам
Продолжительность промежутка : 42 мс. (1,00 видеокадр)
Время предзагрузки промежутка : 500 ms
Аудио #2
Идентификатор : 2
Формат : MPEG Audio
Версия формата : Version 1
Профиль формата : Layer 3
Режим : Joint stereo
Расширение режима : MS Stereo
Идентификатор кодека : 55
Идентификатор кодека/Подсказка : MP3
Продолжительность : 21 м.
Вид битрейта : Постоянный
Битрейт : 128 Кбит/сек
Каналы : 2 канала
Частота : 44,1 КГц
Метод сжатия : С потерями
Размер потока : 20,0 Мбайт (10%)
Выравнивание : Разделение по промежуткам
Продолжительность промежутка : 42 мс. (1,00 видеокадр)
Время предзагрузки промежутка : 500 ms

17-й сезон

Полное имя : *\simpsons\17-й сезон\S17E04 - Treehouse of Horror XVI.avi
Формат : AVI
Формат/Информация : Audio Video Interleave
Размер файла : 190 Мбайт
Продолжительность : 21 м.
Общий поток : 1233 Кбит/сек
Программа кодирования : VirtualDubMod 1.5.10.2 (build 2542/release)
Библиотека кодирования : VirtualDubMod build 2542/release
Видео
Идентификатор : 0
Формат : MPEG-4 Visual
Профиль формата : [email protected]
Параметр BVOP формата : 2
Параметр QPel формата : Нет
Параметр GMC формата : Без точки перехода
Параметр матрицы формата : Default (H.263)
Режим смешивания : Сжатый битовый поток
Идентификатор кодека : XVID
Идентификатор кодека/Подсказка : XviD
Продолжительность : 21 м.
Битрейт : 984 Кбит/сек
Ширина : 512 пикс.
Высота : 384 пикс.
Соотношение сторон : 4:3
Частота кадров : 23,976 кадр/сек
Цветовое пространство : YUV
Подвыборка цветности : 4:2:0
Битовая глубина : 8 бит
Тип развёртки : Прогрессивная
Метод сжатия : С потерями
Бит/(Пиксели*Кадры) : 0.209
Размер потока : 152 Мбайт (80%)
Библиотека кодирования : XviD 1.1.0 Beta1 (UTC 2005-01-16)
Аудио #1
Идентификатор : 1
Формат : MPEG Audio
Версия формата : Version 1
Профиль формата : Layer 3
Идентификатор кодека : 55
Идентификатор кодека/Подсказка : MP3
Продолжительность : 21 м.
Вид битрейта : Постоянный
Битрейт : 96,0 Кбит/сек
Каналы : 1 канал
Частота : 44,1 КГц
Метод сжатия : С потерями
Задержка видео : 26 мс.
Размер потока : 14,8 Мбайт (8%)
Выравнивание : Разделение по промежуткам
Продолжительность промежутка : 42 мс. (1,00 видеокадр)
Время предзагрузки промежутка : 500 ms
Аудио #2
Идентификатор : 2
Формат : MPEG Audio
Версия формата : Version 1
Профиль формата : Layer 3
Режим : Joint stereo
Расширение режима : MS Stereo
Идентификатор кодека : 55
Идентификатор кодека/Подсказка : MP3
Продолжительность : 21 м.
Вид битрейта : Переменный
Битрейт : 135 Кбит/сек
Номинальный битрейт : 128 Кбит/сек
Каналы : 2 канала
Частота : 48,0 КГц
Метод сжатия : С потерями
Размер потока : 20,8 Мбайт (11%)
Выравнивание : Соединение по промежуткам
Продолжительность промежутка : 24 мс. (0,58 видеокадр)
Время предзагрузки промежутка : 511 ms
Библиотека кодирования : LAME3.95
Настройки программы : -m j -V 4 -q 3 -lowpass 17.5 --abr 128

18-й сезон

Полное имя : *\simpsons\18-й сезон\4. Treehouse of Horror XVII.avi
Формат : AVI
Формат/Информация : Audio Video Interleave
Размер файла : 195 Мбайт
Продолжительность : 20 м.
Общий поток : 1314 Кбит/сек
Программа кодирования : VirtualDubMod 1.6.0.0 SURROUND (build 2560/release)
Библиотека кодирования : VirtualDubMod build 2560/release
Видео
Идентификатор : 0
Формат : MPEG-4 Visual
Профиль формата : Advanced [email protected]
Параметр BVOP формата : 2
Параметр QPel формата : Нет
Параметр GMC формата : Без точки перехода
Параметр матрицы формата : Default (H.263)
Режим смешивания : Сжатый битовый поток
Идентификатор кодека : XVID
Идентификатор кодека/Подсказка : XviD
Продолжительность : 20 м.
Битрейт : 1035 Кбит/сек
Ширина : 512 пикс.
Высота : 384 пикс.
Соотношение сторон : 4:3
Частота кадров : 23,976 кадр/сек
Цветовое пространство : YUV
Подвыборка цветности : 4:2:0
Битовая глубина : 8 бит
Тип развёртки : Прогрессивная
Метод сжатия : С потерями
Бит/(Пиксели*Кадры) : 0.220
Размер потока : 153 Мбайт (79%)
Библиотека кодирования : XviD 1.2.0SMP (UTC 2006-01-08)
Аудио #1
Идентификатор : 1
Формат : MPEG Audio
Версия формата : Version 1
Профиль формата : Layer 3
Режим : Joint stereo
Расширение режима : MS Stereo
Идентификатор кодека : 55
Идентификатор кодека/Подсказка : MP3
Продолжительность : 20 м.
Вид битрейта : Постоянный
Битрейт : 128 Кбит/сек
Каналы : 2 канала
Частота : 48,0 КГц
Метод сжатия : С потерями
Размер потока : 19,0 Мбайт (10%)
Выравнивание : Соединение по промежуткам
Продолжительность промежутка : 42 мс. (1,00 видеокадр)
Время предзагрузки промежутка : 504 ms
Библиотека кодирования : LAME3.97
Настройки программы : -m j -V 4 -q 5 -lowpass 17 -b 128
Аудио #2
Идентификатор : 2
Формат : MPEG Audio
Версия формата : Version 1
Профиль формата : Layer 3
Режим : Joint stereo
Расширение режима : MS Stereo
Идентификатор кодека : 55
Идентификатор кодека/Подсказка : MP3
Продолжительность : 20 м.
Вид битрейта : Переменный
Битрейт : 128 Кбит/сек
Каналы : 2 канала
Частота : 48,0 КГц
Метод сжатия : С потерями
Размер потока : 19,9 Мбайт (10%)
Выравнивание : Соединение по промежуткам
Продолжительность промежутка : 24 мс. (0,58 видеокадр)
Время предзагрузки промежутка : 501 ms
Библиотека кодирования : LAME3.96r
Настройки программы : -m j -V 4 -q 3 -lowpass 17.5 --abr 128

19-й сезон

Полное имя : *\simpsons\19-й сезон\s19e04 Simpsons -DoublePR.avi
Формат : AVI
Формат/Информация : Audio Video Interleave
Размер файла : 263 Мбайт
Продолжительность : 21 м.
Общий поток : 1745 Кбит/сек
Библиотека кодирования : VirtualDub build 32559/release
Видео
Идентификатор : 0
Формат : MPEG-4 Visual
Профиль формата : [email protected]
Параметр BVOP формата : Нет
Параметр QPel формата : Нет
Параметр GMC формата : Без точки перехода
Параметр матрицы формата : Default (H.263)
Идентификатор кодека : XVID
Идентификатор кодека/Подсказка : XviD
Продолжительность : 21 м.
Битрейт : 1543 Кбит/сек
Ширина : 512 пикс.
Высота : 384 пикс.
Соотношение сторон : 4:3
Частота кадров : 23,976 кадр/сек
Цветовое пространство : YUV
Подвыборка цветности : 4:2:0
Битовая глубина : 8 бит
Тип развёртки : Прогрессивная
Метод сжатия : С потерями
Бит/(Пиксели*Кадры) : 0.327
Размер потока : 233 Мбайт (88%)
Библиотека кодирования : XviD 1.2.1 (UTC 2008-12-04)
Аудио
Идентификатор : 1
Формат : MPEG Audio
Версия формата : Version 1
Профиль формата : Layer 3
Идентификатор кодека : 55
Идентификатор кодека/Подсказка : MP3
Продолжительность : 21 м.
Вид битрейта : Постоянный
Битрейт : 192 Кбит/сек
Каналы : 2 канала
Частота : 44,1 КГц
Метод сжатия : С потерями
Размер потока : 28,9 Мбайт (11%)
Выравнивание : Разделение по промежуткам
Продолжительность промежутка : 42 мс. (1,00 видеокадр)
Время предзагрузки промежутка : 500 ms

20-й сезон

Уникальный идентификатор : 249851096865435400976375444344762927347 (0xBBF792271984B531B41E00F8F4C608F3)
Полное имя : *\simpsons\20-сезон\The.Simpsons.S20E10.2009.1080p.BluRay.Rus.Eng.HDCLUB.mkv
Формат : Matroska
Версия формата : Version 2
Размер файла : 708 Мбайт
Продолжительность : 21 м.
Общий поток : 4697 Кбит/сек
Название фильма : The Simpsons [Season 20] (2009) - Release for HDClub
Дата кодирования : UTC 2010-01-22 21:16:08
Программа кодирования : mkvmerge v2.9.8 ('C'est le bon') built on Aug 13 2009 12:49:06
Библиотека кодирования : libebml v0.7.7 + libmatroska v0.8.1
Видео
Идентификатор : 1
Формат : AVC
Формат/Информация : Advanced Video Codec
Профиль формата : [email protected]
Параметр CABAC формата : Да
Параметр ReFrames формата : 4 кадра
Идентификатор кодека : V_MPEG4/ISO/AVC
Продолжительность : 21 м.
Битрейт : 2774 Кбит/сек
Ширина : 1920 пикс.
Высота : 1080 пикс.
Соотношение сторон : 16:9
Частота кадров : 23,976 кадр/сек
Цветовое пространство : YUV
Подвыборка цветности : 4:2:0
Битовая глубина : 8 бит
Тип развёртки : Прогрессивная
Бит/(Пиксели*Кадры) : 0.056
Размер потока : 418 Мбайт (59%)
Заголовок : Season 20, Episode 10: Take My Life, Please / Пожалуйста, забери мою жизнь - Release for HDClub
Библиотека кодирования : x264 core 80 r1376 3feaec2
Настройки программы : cabac=1 / ref=4 / deblock=1:-1:-1 / analyse=0x3:0x133 / me=tesa / subme=10 / psy=1 / psy_rd=0.5:0.0 / mixed_ref=1 / me_range=24 / chroma_me=1 / trellis=2 / 8x8dct=1 / cqm=0 / deadzone=21,11 / fast_pskip=0 / chroma_qp_offset=-2 / threads=12 / sliced_threads=0 / nr=0 / decimate=1 / mbaff=0 / constrained_intra=0 / bframes=16 / b_pyramid=0 / b_adapt=2 / b_bias=0 / direct=3 / wpredb=1 / wpredp=2 / keyint=240 / keyint_min=24 / scenecut=40 / rc=crf / mbtree=0 / crf=18.5 / qcomp=0.60 / qpmin=10 / qpmax=51 / qpstep=4 / ip_ratio=1.40 / pb_ratio=1.30 / aq=1:0.80
Язык : English
Аудио #1
Идентификатор : 2
Формат : AC-3
Формат/Информация : Audio Coding 3
Расширение режима : CM (complete main)
Идентификатор кодека : A_AC3
Продолжительность : 21 м.
Вид битрейта : Постоянный
Битрейт : 320 Кбит/сек
Каналы : 6 каналов
Расположение каналов : Front: L C R, Side: L R, LFE
Частота : 48,0 КГц
Битовая глубина : 16 бит
Метод сжатия : С потерями
Размер потока : 48,2 Мбайт (7%)
Заголовок : AC3 5.1 320 kbps Многоголосый закадровый, Vо-production
Язык : Russian
Аудио #2
Идентификатор : 3
Формат : DTS
Формат/Информация : Digital Theater Systems
Идентификатор кодека : A_DTS
Продолжительность : 21 м.
Вид битрейта : Постоянный
Битрейт : 1510 Кбит/сек
Каналы : 6 каналов
Расположение каналов : Front: L C R, Side: L R, LFE
Частота : 48,0 КГц
Битовая глубина : 24 бит
Метод сжатия : С потерями
Размер потока : 228 Мбайт (32%)
Заголовок : DTS 5.1 1536 kbps
Язык : English
Текст #1
Идентификатор : 4
Формат : UTF-8
Идентификатор кодека : S_TEXT/UTF8
Идентификатор кодека/Информация : UTF-8 Plain Text
Язык : Russian
Текст #2
Идентификатор : 5
Формат : UTF-8
Идентификатор кодека : S_TEXT/UTF8
Идентификатор кодека/Информация : UTF-8 Plain Text
Язык : English
Текст #3
Идентификатор : 6
Формат : UTF-8
Идентификатор кодека : S_TEXT/UTF8
Идентификатор кодека/Информация : UTF-8 Plain Text
Язык : Spanish
Текст #4
Идентификатор : 7
Формат : UTF-8
Идентификатор кодека : S_TEXT/UTF8
Идентификатор кодека/Информация : UTF-8 Plain Text
Язык : Portuguese
Текст #5
Идентификатор : 8
Формат : UTF-8
Идентификатор кодека : S_TEXT/UTF8
Идентификатор кодека/Информация : UTF-8 Plain Text
Язык : French
Меню
00:00:00.000 : en:Opening Credits
00:01:57.451 : en:Part A
00:06:04.072 : en:Part B
00:09:34.699 : en:Part C
00:13:52.248 : en:Part D
00:20:14.463 : en:Ending Credits

21-й сезон

Уникальный идентификатор : 176945612898959290804935025392118347837 (0x851E7C45DC9C0FAB8B8939C2B77F383D)
Полное имя : *\simpsons\21-й сезон\The.Simpsons.S21E04.720p.WEB-DL.Rus.Eng.HDCLUB.mkv
Формат : Matroska
Версия формата : Version 2
Размер файла : 718 Мбайт
Продолжительность : 22 м.
Общий поток : 4557 Кбит/сек
Название фильма : The Simpsons [Season 21] (2009) - Release for HDClub
Дата кодирования : UTC 2009-11-24 17:31:36
Программа кодирования : mkvmerge v2.9.8 ('C'est le bon') built on Aug 13 2009 12:49:06
Библиотека кодирования : libebml v0.7.7 + libmatroska v0.8.1
Видео
Идентификатор : 1
Формат : AVC
Формат/Информация : Advanced Video Codec
Профиль формата : [email protected]
Параметр CABAC формата : Нет
Параметр ReFrames формата : 2 кадра
Идентификатор кодека : V_MPEG4/ISO/AVC
Продолжительность : 22 м.
Битрейт : 3826 Кбит/сек
Ширина : 1280 пикс.
Высота : 720 пикс.
Соотношение сторон : 16:9
Частота кадров : 23,976 кадр/сек
Цветовое пространство : YUV
Подвыборка цветности : 4:2:0
Битовая глубина : 8 бит
Тип развёртки : Прогрессивная
Бит/(Пиксели*Кадры) : 0.173
Размер потока : 603 Мбайт (84%)
Заголовок : Release for HDClub
Язык : English
Основные цвета : BT.709-5, BT.1361, IEC 61966-2-4, SMPTE RP177
Характеристики трансфера : BT.709-5, BT.1361
Коэффициенты матрицы : BT.709-5, BT.1361, IEC 61966-2-4 709, SMPTE RP177
Аудио #1
Идентификатор : 2
Формат : AC-3
Формат/Информация : Audio Coding 3
Расширение режима : CM (complete main)
Идентификатор кодека : A_AC3
Продолжительность : 22 м.
Вид битрейта : Постоянный
Битрейт : 256 Кбит/сек
Каналы : 2 канала
Расположение каналов : Front: L R
Частота : 48,0 КГц
Битовая глубина : 16 бит
Метод сжатия : С потерями
Размер потока : 40,3 Мбайт (6%)
Заголовок : AC3 2.0 256 Kbps Многоголосый закадровый, Vо-production
Язык : Russian
Аудио #2
Идентификатор : 3
Формат : AC-3
Формат/Информация : Audio Coding 3
Расширение режима : CM (complete main)
Идентификатор кодека : A_AC3
Продолжительность : 22 м.
Вид битрейта : Постоянный
Битрейт : 384 Кбит/сек
Каналы : 6 каналов
Расположение каналов : Front: L C R, Side: L R, LFE
Частота : 48,0 КГц
Битовая глубина : 16 бит
Метод сжатия : С потерями
Размер потока : 60,5 Мбайт (8%)
Заголовок : AC3 5.1 384 Kbps
Язык : English

22-й сезон

Уникальный идентификатор : 218282690736864357982157387834593600019 (0xA437B79023E28F3CAC5CA09943A36213)
Полное имя : *\simpsons\22-й сезон\The_Simpsons_2206_WEB-DL_VO-production.mkv
Формат : Matroska
Версия формата : Version 1
Размер файла : 596 Мбайт
Продолжительность : 22 м.
Общий поток : 3760 Кбит/сек
Дата кодирования : UTC 2010-12-19 18:24:21
Программа кодирования : mkvmerge v2.4.0 ('Fumbling Towards Ecstasy') built on Oct 11 2008 20:13:15
Библиотека кодирования : libebml v0.7.7 + libmatroska v0.8.1
Видео
Идентификатор : 1
Формат : AVC
Формат/Информация : Advanced Video Codec
Профиль формата : [email protected]
Параметр CABAC формата : Да
Параметр ReFrames формата : 3 кадра
Идентификатор кодека : V_MPEG4/ISO/AVC
Продолжительность : 22 м.
Битрейт : 3500 Кбит/сек
Ширина : 1280 пикселей
Высота : 720 пикселей
Соотношение сторон : 16:9
Частота кадров : 23,976 кадра/сек
Цветовое пространство : YUV
Субдискретизация насыщенности : 4:2:0
Битовая глубина : 8 бит
Тип развёртки : Прогрессивная
Бит/(Пиксели*Кадры) : 0.158
Размер потока : 543 Мбайт (91%)
Библиотека кодирования : x264 core 65 r999kMod cc51047
Настройки программы : cabac=1 / ref=3 / deblock=1:0:0 / analyse=0x3:0x133 / me=umh / subme=6 / psy_rd=1.0:0.0 / mixed_ref=1 / me_range=16 / chroma_me=1 / trellis=1 / 8x8dct=1 / cqm=0 / deadzone=21,11 / chroma_qp_offset=-2 / threads=4 / thread_queue=4 / nr=0 / decimate=1 / mbaff=0 / bframes=3 / b_pyramid=1 / b_adapt=1 / b_bias=0 / direct=3 / wpredb=1 / keyint=250 / keyint_min=25 / scenecut=40(pre) / rc=2pass / bitrate=3500 / ratetol=1.0 / qcomp=0.60 / qpmin=10 / qpmax=51 / qpstep=4 / cplxblur=20.0 / qblur=0.5 / ip_ratio=1.40 / pb_ratio=1.30 / aq=1:1.00
Default : Да
Forced : Нет
Аудио
Идентификатор : 2
Формат : AC-3
Формат/Информация : Audio Coding 3
Расширение режима : CM (complete main)
Идентификатор кодека : A_AC3
Продолжительность : 22 м.
Вид битрейта : Постоянный
Битрейт : 256 Кбит/сек
Каналы : 2 канала
Расположение каналов : Front: L R
Частота : 48,0 КГц
Битовая глубина : 16 бит
Метод сжатия : С потерями
Размер потока : 40,5 Мбайт (7%)
Default : Да
Forced : Нет

23-й сезон

Уникальный идентификатор : 215874501668457444102620157778799279444 (0xA267EAACCE163932BDA0E21EA65EBD54)
Полное имя : G:\simpsons\23-й сезон\The_Simpsons_2316_WEB-DL_VO-production.mkv
Формат : Matroska
Версия формата : Version 2
Размер файла : 607 Мбайт
Продолжительность : 22 м.
Общий поток : 3758 Кбит/сек
Дата кодирования : UTC 2012-03-17 14:55:58
Программа кодирования : mkvmerge v5.3.0 ('I could have danced') built on Feb 9 2012 10:38:07
Библиотека кодирования : libebml v1.2.3 + libmatroska v1.3.0
Видео
Идентификатор : 1
Формат : AVC
Формат/Информация : Advanced Video Codec
Профиль формата : [email protected]
Параметр CABAC формата : Да
Параметр ReFrames формата : 3 кадра
Режим смешивания : Header stripping
Идентификатор кодека : V_MPEG4/ISO/AVC
Продолжительность : 22 м.
Битрейт : 3500 Кбит/сек
Ширина : 1280 пикселей
Высота : 720 пикселей
Соотношение сторон : 16:9
Частота кадров : 23,976 кадра/сек
Цветовое пространство : YUV
Субдискретизация насыщенности : 4:2:0
Битовая глубина : 8 бит
Тип развёртки : Прогрессивная
Бит/(Пиксели*Кадры) : 0.158
Размер потока : 554 Мбайт (91%)
Библиотека кодирования : x264 core 65 r999kMod cc51047
Настройки программы : cabac=1 / ref=3 / deblock=1:0:0 / analyse=0x3:0x133 / me=umh / subme=6 / psy_rd=1.0:0.0 / mixed_ref=1 / me_range=16 / chroma_me=1 / trellis=1 / 8x8dct=1 / cqm=0 / deadzone=21,11 / chroma_qp_offset=-2 / threads=4 / thread_queue=4 / nr=0 / decimate=1 / mbaff=0 / bframes=3 / b_pyramid=1 / b_adapt=1 / b_bias=0 / direct=3 / wpredb=1 / keyint=250 / keyint_min=25 / scenecut=40(pre) / rc=2pass / bitrate=3500 / ratetol=1.0 / qcomp=0.60 / qpmin=10 / qpmax=51 / qpstep=4 / cplxblur=20.0 / qblur=0.5 / ip_ratio=1.40 / pb_ratio=1.30 / aq=1:1.00
Default : Да
Forced : Нет
Аудио
Идентификатор : 2
Формат : AC-3
Формат/Информация : Audio Coding 3
Расширение режима : CM (complete main)
Параметр Endianness формата : Big
Режим смешивания : Header stripping
Идентификатор кодека : A_AC3
Продолжительность : 22 м.
Вид битрейта : Постоянный
Битрейт : 256 Кбит/сек
Каналы : 2 канала
Расположение каналов : Front: L R
Частота : 48,0 КГц
Битовая глубина : 16 бит
Метод сжатия : С потерями
Размер потока : 41,3 Мбайт (7%)
Заголовок : VO-production
Язык : Russian
Default : Да
Forced : Нет

24-й сезон

Полное имя : E:\simpsons\24-й сезон\The_Simpsons_2416_WEB-DL_VO-production.mkv
Формат : Matroska
Версия формата : Version 1
Размер файла : 587 Мбайт
Продолжительность : 21 м.
Общий поток : 3760 Кбит/сек
Дата кодирования : UTC 2013-03-23 14:23:04
Программа кодирования : mkvmerge v2.4.2 ('Oh My God') built on Jan 18 2009 17:30:28
Библиотека кодирования : libebml v0.7.7 + libmatroska v0.8.1
Видео
Идентификатор : 1
Формат : AVC
Формат/Информация : Advanced Video Codec
Профиль формата : [email protected]
Параметр CABAC формата : Да
Параметр ReFrames формата : 3 кадра
Идентификатор кодека : V_MPEG4/ISO/AVC
Продолжительность : 21 м.
Битрейт : 3500 Кбит/сек
Ширина : 1280 пикселей
Высота : 720 пикселей
Соотношение сторон : 16:9
Режим частоты кадров : Постоянный
Частота кадров : 23,976 кадра/сек
Цветовое пространство : YUV
Субдискретизация насыщенности : 4:2:0
Битовая глубина : 8 бит
Тип развёртки : Прогрессивная
Бит/(Пиксели*Кадры) : 0.158
Размер потока : 536 Мбайт (91%)
Библиотека кодирования : x264 core 65 r999kMod cc51047
Настройки программы : cabac=1 / ref=3 / deblock=1:0:0 / analyse=0x3:0x133 / me=umh / subme=6 / psy_rd=1.0:0.0 / mixed_ref=1 / me_range=16 / chroma_me=1 / trellis=1 / 8x8dct=1 / cqm=0 / deadzone=21,11 / chroma_qp_offset=-2 / threads=4 / thread_queue=4 / nr=0 / decimate=1 / mbaff=0 / bframes=3 / b_pyramid=1 / b_adapt=1 / b_bias=0 / direct=3 / wpredb=1 / keyint=250 / keyint_min=25 / scenecut=40(pre) / rc=2pass / bitrate=3500 / ratetol=1.0 / qcomp=0.60 / qpmin=10 / qpmax=51 / qpstep=4 / cplxblur=20.0 / qblur=0.5 / ip_ratio=1.40 / pb_ratio=1.30 / aq=1:1.00
Default : Да
Forced : Нет
Аудио
Идентификатор : 2
Формат : AC-3
Формат/Информация : Audio Coding 3
Расширение режима : CM (complete main)
Параметр Endianness формата : Big
Идентификатор кодека : A_AC3
Продолжительность : 21 м.
Вид битрейта : Постоянный
Битрейт : 256 Кбит/сек
Каналы : 2 канала
Расположение каналов : Front: L R
Частота : 48,0 КГц
Битовая глубина : 16 бит
Метод сжатия : С потерями
Размер потока : 40,0 Мбайт (7%)
Заголовок : VO-production
Язык : Russian
Default : Да
Forced : Нет
Сезоны 1-11,15-18,20,21 имеют 2 звуковые дорожки, так же 20 сезон имеет вшитые субтитры и меню глав (см. отчёт MediaInfo/20 сезон)
Скриншоты:
512x384

576x432
480x360
640x480
720p
1080p

[Цитировать]



Показать сообщения:    

Текущее время: 04-Дек 13:11

Часовой пояс: UTC + 3


Вы не можете начинать темы
Вы не можете отвечать на сообщения
Вы не можете редактировать свои сообщения
Вы не можете удалять свои сообщения
Вы не можете голосовать в опросах
Вы не можете прикреплять файлы к сообщениям
Вы не можете скачивать файлы

!ВНИМАНИЕ!
Сайт не предоставляет электронные версии произведений, а занимается лишь коллекционированием и каталогизацией ссылок, присылаемых и публикуемых на форуме нашими читателями. Если вы являетесь правообладателем какого-либо представленного материала и не желаете, чтобы ссылка на него находилась в нашем каталоге, свяжитесь с нами, и мы незамедлительно удалим ее. Файлы для обмена на трекере предоставлены пользователями сайта, и администрация не несет ответственности за их содержание. Просьба не заливать файлы, защищенные авторскими правами, а также файлы нелегального содержания!