[ Сегодня идет свободное скачивание без начисления Download ]


Статистика раздачи
Нет
 
   
 
Top  
 
 
-Малавита / The Family (2013) BDRip
«Некоторые называют их организованной преступной группировкой. Другие – семьей»
- Год выпуска: 2013
Производство: США, Франция | EuropaCorp, Relativity Media, TF1 Films Production
Жанр: Криминал, Комедия, Боевик
Перевод: Дублированный
Субтитры: Вшитые отключаемые
Язык субтитров: Английский (Full, SDH, SDH-Colored), Испанский-Дата мировой премьеры: 1 мая 2013 (Чили)
Дата российской премьеры: 19 сентября 2013, «Парадиз»
Дата выхода DVD релиза: 19 ноября 2013, «Парадиз / Активижен»
Дата выхода Blu-Ray релиза: 3 декабря 2013, «Парадиз / Активижен»-Режиссер: Люк Бессон-Продюсер: Райан Кэвэна, Виржини Силла, Люк Бессон-Актеры: Роберт Де Ниро, Мишель Пфайффер, Томми Ли Джонс, Дианна Агрон, Джон Д’Лео, Джон Фреда, Джимми Палумбо, Доменик Ломбардоззи, Стэн Карп, Винсент Пасторе, Майкл Дж. Паникелли мл., Пол Боргезе, Энтони Десио, Тед Арсиди ...-Роли дублировали: Никита Прозоровский, Александра Остроухова ...-Описание фильма:
• Что вы знаете о своих соседях? Особенно о тех, которые заявляются среди ночи… Так, однажды на тихой улочке провинциального французского городка поселился писатель по фамилии Блейк, со своим семейством и собакой Малавитой. На этом многовековое спокойствие города закончилось. Почему сгорел местный супермаркет? Чем рискует медлительный водопроводчик? Что лежит в рюкзаке у милого парня в бежевых бриджах?
• Кто бы мог представить, что на самом деле мистер Блейк — бывший глава мафии, которого власти прячут здесь от преследования. И вот в городок приезжают люди «Коза Ностры»…-
Продолжительность: 01:51:33
Качество видео: BDRip 1080p [CHD] [USA Transfer]
Видеокодек: MPEG-4 AVC/H.264
Битрейт видео: ~ 8655 Кбит/сек
Размер кадра: 1920 x 804 (2.388) at 23,976 fps : 0.234 Bits/Pixel
Аудио #1: DTS 1509 kbps, 5.1 / 48 kHz / 16-bit [Русский Дубляж]
Аудио #2: AC3 448 kbps, 5.1 / 48 kHz / 16-bit [Русский Дубляж]
Аудио #3: DTS 1509 Кбит/сек (6ch), 48,0 КГц, 24 бит [Английский]
Дополнительно: Сохранены оригинальные чаптеры как на Blu-ray
Релиз:

Знаете ли вы, что...

• Фильм снят по мотивам романа Тонино Бенаквисты «Малавита» (Malavita, 2004).
• Во время съемок сцены, в которой Бэлль избивает парней теннисной ракеткой, ракетка сломалась, и Дианна Агрон, как и вся команда, не смогли сдержать смех.
• Фильм сменил несколько названий: «The Blakes», «Badfellas», «Malavita».
• Люк Бессон обращался к Дианне Агрон исключительно по имени ее персонажа — «Бэлль», но когда он назвал её так вне съемок, Дианна не отзывалась, что очень смешило Люка.
• Сцену в школьном кафетерии пришлось переснимать очень много раз, потому что вся команда смеялась из-за неких проблем с гардеробом Дианны Агрон.
• Съёмки проходили в период с августа по октябрь 2012 года, в Нормандии, Гасе, Ле Сапе, Нью-Йорке и на киностудии Cit? du Cin?ma
• В киноклубе Фреду предложили посмотреть и обсудить фильм «Славные парни» (1990), в котором Роберт Де Ниро также играл одну из главных ролей.

MediaInfo:

Уникальный идентификатор                 : 250873536079252197191107539763945572245 (0xBCBC7C4C4793EBDB994D520CBDF08795)
Полное имя                               : H:\BDRip'ы\Малавита  The Family (2013) Blu-ray Disc [USA Transfer] -BLUEBIRD\Malavita.2013.D.BDRip.1080p.NNM-CLUB.mkv
Формат                                   : Matroska
Версия формата                           : Version 2
Размер файла                             : 9,43 Гбайт
Продолжительность                        : 1 ч. 51 м.
Общий поток                              : 12,1 Мбит/сек
Название фильма                          : The.Family.2013.BluRay.1080p.DTS.x264-CHD
Дата кодирования                         : UTC 2013-12-06 18:29:10
Программа кодирования                    : mkvmerge v2.9.9 ('Tutu') built on Nov 25 2009 21:13:32
Библиотека кодирования                   : libebml v0.7.9 + libmatroska v0.8.1
Видео
Идентификатор                            : 1
Формат                                   : AVC
Формат/Информация                        : Advanced Video Codec
Профиль формата                          : [url=mailto:[email protected]][email protected][/url]
Параметр CABAC формата                   : Да
Параметр ReFrames формата                : 5 кадров
Идентификатор кодека                     : V_MPEG4/ISO/AVC
Продолжительность                        : 1 ч. 51 м.
Битрейт                                  : 8655 Кбит/сек
Ширина                                   : 1920 пикселей
Высота                                   : 804 пикселя
Соотношение сторон                       : 2,40:1
Режим частоты кадров                     : Постоянный
Частота кадров                           : 23,976 кадра/сек
Цветовое пространство                    : YUV
Субдискретизация насыщенности            : 4:2:0
Битовая глубина                          : 8 бит
Тип развёртки                            : Прогрессивная
Бит/(Пиксели*Кадры)                      : 0.234
Размер потока                            : 6,54 Гбайт (69%)
Заголовок                                : -=Release for NNM-CLUB.RU=-
Библиотека кодирования                   : x264 core 138 r2356 a1d3d17
Настройки программы                      : cabac=1 / ref=5 / deblock=1:-3:-3 / analyse=0x3:0x113 / me=umh / subme=10 / psy=1 / psy_rd=1.00:0.05 / mixed_ref=1 / me_range=32 / chroma_me=1 / trellis=2 / 8x8dct=1 / cqm=0 / deadzone=21,11 / fast_pskip=0 / chroma_qp_offset=-2 / threads=18 / lookahead_threads=1 / sliced_threads=0 / nr=0 / decimate=1 / interlaced=0 / bluray_compat=0 / constrained_intra=0 / bframes=5 / b_pyramid=2 / b_adapt=2 / b_bias=0 / direct=3 / weightb=1 / open_gop=0 / weightp=2 / keyint=250 / keyint_min=23 / scenecut=40 / intra_refresh=0 / rc=2pass / mbtree=0 / bitrate=8655 / ratetol=1.0 / qcomp=0.70 / qpmin=0 / qpmax=69 / qpstep=4 / cplxblur=20.0 / qblur=0.5 / ip_ratio=1.40 / pb_ratio=1.30 / aq=2:0.90
Язык                                     : English
Default                                  : Нет
Forced                                   : Нет
Аудио #1
Идентификатор                            : 2
Формат                                   : DTS
Формат/Информация                        : Digital Theater Systems
Режим                                    : 16
Параметр Endianness формата              : Big
Идентификатор кодека                     : A_DTS
Продолжительность                        : 1 ч. 51 м.
Вид битрейта                             : Постоянный
Битрейт                                  : 1509 Кбит/сек
Каналы                                   : 6 каналов
Расположение каналов                     : Front: L C R, Side: L R, LFE
Частота                                  : 48,0 КГц
Битовая глубина                          : 16 бит
Метод сжатия                             : С потерями
Размер потока                            : 1,18 Гбайт (12%)
Заголовок                                : DTS.1509.Kbps (6ch) Russian (Blu-ray RUS)
Язык                                     : Russian
Default                                  : Да
Forced                                   : Нет
Аудио #2
Идентификатор                            : 3
Формат                                   : AC-3
Формат/Информация                        : Audio Coding 3
Расширение режима                        : CM (complete main)
Параметр Endianness формата              : Big
Идентификатор кодека                     : A_AC3
Продолжительность                        : 1 ч. 51 м.
Вид битрейта                             : Постоянный
Битрейт                                  : 448 Кбит/сек
Каналы                                   : 6 каналов
Расположение каналов                     : Front: L C R, Side: L R, LFE
Частота                                  : 48,0 КГц
Битовая глубина                          : 16 бит
Метод сжатия                             : С потерями
Размер потока                            : 357 Мбайт (4%)
Заголовок                                : AC3.448.Kbps (6ch) Russian (Дубляж)
Язык                                     : Russian
Default                                  : Нет
Forced                                   : Нет
Аудио #3
Идентификатор                            : 4
Формат                                   : DTS
Формат/Информация                        : Digital Theater Systems
Режим                                    : 16
Параметр Endianness формата              : Big
Идентификатор кодека                     : A_DTS
Продолжительность                        : 1 ч. 51 м.
Вид битрейта                             : Постоянный
Битрейт                                  : 1509 Кбит/сек
Каналы                                   : 6 каналов
Расположение каналов                     : Front: L C R, Side: L R, LFE
Частота                                  : 48,0 КГц
Битовая глубина                          : 24 бит
Метод сжатия                             : С потерями
Задержка видео                           : 11 мс.
Размер потока                            : 1,18 Гбайт (12%)
Заголовок                                : DTS.1509.Kbps (6ch) English (Blu-ray USA)
Язык                                     : English
Default                                  : Нет
Forced                                   : Нет
Текст #1
Идентификатор                            : 5
Формат                                   : UTF-8
Идентификатор кодека                     : S_TEXT/UTF8
Идентификатор кодека/Информация          : UTF-8 Plain Text
Заголовок                                : English (Full)
Язык                                     : English
Default                                  : Нет
Forced                                   : Нет
Текст #2
Идентификатор                            : 6
Формат                                   : UTF-8
Идентификатор кодека                     : S_TEXT/UTF8
Идентификатор кодека/Информация          : UTF-8 Plain Text
Заголовок                                : English (SDH)
Язык                                     : English
Default                                  : Нет
Forced                                   : Нет
Текст #3
Идентификатор                            : 7
Формат                                   : UTF-8
Идентификатор кодека                     : S_TEXT/UTF8
Идентификатор кодека/Информация          : UTF-8 Plain Text
Заголовок                                : English (SDH-Colored)
Язык                                     : English
Default                                  : Нет
Forced                                   : Нет
Текст #4
Идентификатор                            : 8
Формат                                   : UTF-8
Идентификатор кодека                     : S_TEXT/UTF8
Идентификатор кодека/Информация          : UTF-8 Plain Text
Заголовок                                : Spanish (Full)
Язык                                     : Spanish
Default                                  : Нет
Forced                                   : Нет
Меню
00:00:00.000                             : en:Chapter 00
00:06:26.719                             : en:Chapter 01
00:09:57.430                             : en:Chapter 02
00:13:23.636                             : en:Chapter 03
00:17:10.946                             : en:Chapter 04
00:22:08.493                             : en:Chapter 05
00:27:46.081                             : en:Chapter 06
00:31:46.821                             : en:Chapter 07
00:36:56.255                             : en:Chapter 08
00:42:52.736                             : en:Chapter 09
00:45:10.207                             : en:Chapter 10
00:54:17.170                             : en:Chapter 11
00:58:33.092                             : en:Chapter 12
01:02:21.988                             : en:Chapter 13
01:04:30.032                             : en:Chapter 14
01:07:11.944                             : en:Chapter 15
01:12:59.124                             : en:Chapter 16
01:17:25.265                             : en:Chapter 17
01:25:00.095                             : en:Chapter 18
01:28:02.819                             : en:Chapter 19
01:31:05.626                             : en:Chapter 20
01:35:11.122                             : en:Chapter 21
01:44:14.873                             : en:Chapter 22
01:45:17.102                             : en:Chapter 23

x264 iNFO

x264 [info]: profile High, level 4.1
x264 [info]: frame I:1970 Avg QP:17.23 size:164917
x264 [info]: frame P:37948 Avg QP:19.77 size: 77374
x264 [info]: frame B:120571 Avg QP:22.02 size: 32887
Скриншоты:




[Цитировать]



Показать сообщения:    

Текущее время: 04-Дек 06:59

Часовой пояс: UTC + 3


Вы не можете начинать темы
Вы не можете отвечать на сообщения
Вы не можете редактировать свои сообщения
Вы не можете удалять свои сообщения
Вы не можете голосовать в опросах
Вы не можете прикреплять файлы к сообщениям
Вы не можете скачивать файлы

!ВНИМАНИЕ!
Сайт не предоставляет электронные версии произведений, а занимается лишь коллекционированием и каталогизацией ссылок, присылаемых и публикуемых на форуме нашими читателями. Если вы являетесь правообладателем какого-либо представленного материала и не желаете, чтобы ссылка на него находилась в нашем каталоге, свяжитесь с нами, и мы незамедлительно удалим ее. Файлы для обмена на трекере предоставлены пользователями сайта, и администрация не несет ответственности за их содержание. Просьба не заливать файлы, защищенные авторскими правами, а также файлы нелегального содержания!