[ Сегодня идет свободное скачивание без начисления Download ]


Статистика раздачи
Нет
 
   
 
Top  
 
 
-Телекинез / Carrie (2013) BDRip [720p]- -Год выпуска: 2013
Производство: США / Metro-Goldwyn-Mayer (MGM), Misher Films, Screen Gems
Жанр: Драма, Ужасы-Язык: Русский
Перевод: Дублированный (звук с TS)
Субтитры: Вшитые отключаемые
Язык субтитров: Английский-Дата мировой премьеры: 7 октября 2013
Дата российской премьеры: 14 ноября 2013, «WDSSPR»
Дата выхода DVD релиза: 13 февраля 2014, «Двадцатый Век Фокс СНГ»-Режиссер: Кимберли Пирс
Продюсер: Кевин Мишер, Дж. Майлз Дэйл
Актеры: Хлоя Грейс Морец, Джулианна Мур, Джуди Грир, Габриэлла Уайлд, Алекс Расселл, Портия Даблдэй, Синтия Престон, Коннор Прайс, Ким Робертс, Кайл Мак-Описание фильма:
Невзрачная старшеклассница по имени Кэрри с рождения обладает способностями телекинеза. Давление со стороны фанатично религиозной мамочки и постоянные издевки сверстников лишь способствует развитию ее сверхъестественных способностей. На выпускном одноклассники решают жестоко подшутить над ней, что приводит к фатальным последствиям.- -Продолжительность: 01:40:56
Качество видео: BDRip [720p] [profile-LQ]-Видеокодек: MPEG4 AVC
Битрейт видео: ~4685 Kbps
Размер кадра: 1280x544
Аудио#1: MP3 2.0; 128 kb/s; 48.0 KHz [Русский]
Аудио#2: DTS 5.1; 1509 kb/s; 48.0 KHz [Английский]
Примечание: Сохранены оригинальные чаптеры с Blu-Ray.

MediaInfo

General
Unique ID                                : 254836178116887545793571600186006358437 (0xBFB7A9A2700781B88524527226D8C9A5)
Complete name                            : F:\Carrie.2013.720p.BRip.mkv
Format                                   : Matroska
Format version                           : Version 2
File size                                : 4.45 GiB
Duration                                 : 1h 40mn
Overall bit rate                         : 6 318 Kbps
Encoded date                             : UTC 2014-01-03 15:35:21
Writing application                      : mkvmerge v5.8.0 ('No Sleep / Pillow') built on Sep  2 2012 15:37:04
Writing library                          : libebml v1.2.3 + libmatroska v1.3.0
Attachment                               : Yes
Video
ID                                       : 1
Format                                   : AVC
Format/Info                              : Advanced Video Codec
Format profile                           : [url=mailto:High@L4.1]High@L4.1[/url]
Format settings, CABAC                   : Yes
Format settings, ReFrames                : 5 frames
Muxing mode                              : Header stripping
Codec ID                                 : V_MPEG4/ISO/AVC
Duration                                 : 1h 40mn
Bit rate                                 : 4 685 Kbps
Width                                    : 1 280 pixels
Height                                   : 544 pixels
Display aspect ratio                     : 2.35:1
Frame rate mode                          : Constant
Frame rate                               : 23.976 fps
Color space                              : YUV
Chroma subsampling                       : 4:2:0
Bit depth                                : 8 bits
Scan type                                : Progressive
Bits/(Pixel*Frame)                       : 0.281
Stream size                              : 3.21 GiB (72%)
Title                                    : X264
Writing library                          : x264 core 140 r2377 1ca7bb9
Encoding settings                        : cabac=1 / ref=5 / deblock=1:0:0 / analyse=0x3:0x133 / me=umh / subme=7 / psy=1 / psy_rd=1.00:0.00 / mixed_ref=1 / me_range=16 / chroma_me=1 / trellis=1 / 8x8dct=1 / cqm=0 / deadzone=21,11 / fast_pskip=0 / chroma_qp_offset=-2 / threads=36 / lookahead_threads=4 / sliced_threads=0 / nr=0 / decimate=1 / interlaced=0 / bluray_compat=0 / constrained_intra=0 / bframes=3 / b_pyramid=2 / b_adapt=1 / b_bias=0 / direct=1 / weightb=1 / open_gop=0 / weightp=2 / keyint=250 / keyint_min=23 / scenecut=40 / intra_refresh=0 / rc_lookahead=40 / rc=2pass / mbtree=1 / bitrate=4685 / ratetol=1.0 / qcomp=0.60 / qpmin=0 / qpmax=69 / qpstep=4 / cplxblur=20.0 / qblur=0.5 / ip_ratio=1.40 / aq=1:1.00
Language                                 : English
Default                                  : Yes
Forced                                   : No
Audio #1
ID                                       : 2
Format                                   : MPEG Audio
Format version                           : Version 1
Format profile                           : Layer 3
Mode                                     : Joint stereo
Mode extension                           : MS Stereo
Muxing mode                              : Header stripping
Codec ID                                 : A_MPEG/L3
Codec ID/Hint                            : MP3
Duration                                 : 1h 40mn
Bit rate mode                            : Constant
Bit rate                                 : 128 Kbps
Channel count                            : 2 channels
Sampling rate                            : 48.0 KHz
Compression mode                         : Lossy
Stream size                              : 92.4 MiB (2%)
Title                                    : Дубляж c ТS
Language                                 : Russian
Default                                  : Yes
Forced                                   : No
Audio #2
ID                                       : 3
Format                                   : DTS
Format/Info                              : Digital Theater Systems
Mode                                     : 16
Format settings, Endianness              : Big
Muxing mode                              : Header stripping
Codec ID                                 : A_DTS
Duration                                 : 1h 40mn
Bit rate mode                            : Constant
Bit rate                                 : 1 509 Kbps
Channel count                            : 6 channels
Channel positions                        : Front: L C R, Side: L R, LFE
Sampling rate                            : 48.0 KHz
Bit depth                                : 24 bits
Compression mode                         : Lossy
Stream size                              : 1.06 GiB (24%)
Title                                    : DTS
Language                                 : English
Default                                  : No
Forced                                   : No
Text
ID                                       : 4
Format                                   : UTF-8
Codec ID                                 : S_TEXT/UTF8
Codec ID/Info                            : UTF-8 Plain Text
Title                                    : English
Language                                 : English
Default                                  : No
Forced                                   : No
Menu
00:00:00.000                             : en:00:00:00.000
00:04:14.546                             : en:00:04:14.546
00:06:37.856                             : en:00:06:37.856
00:10:07.649                             : en:00:10:07.649
00:12:03.681                             : en:00:12:03.681
00:14:46.177                             : en:00:14:46.177
00:18:50.463                             : en:00:18:50.463
00:23:15.060                             : en:00:23:15.060
00:26:51.401                             : en:00:26:51.401
00:30:50.974                             : en:00:30:50.974
00:32:27.863                             : en:00:32:27.863
00:36:18.093                             : en:00:36:18.093
00:38:20.340                             : en:00:38:20.340
00:41:47.755                             : en:00:41:47.755
00:46:22.196                             : en:00:46:22.196
00:51:01.850                             : en:00:51:01.850
00:53:09.853                             : en:00:53:09.853
00:55:47.678                             : en:00:55:47.678
01:00:52.065                             : en:01:00:52.065
01:04:02.338                             : en:01:04:02.338
01:07:03.311                             : en:01:07:03.311
01:09:38.383                             : en:01:09:38.383
01:13:05.381                             : en:01:13:05.381
01:18:25.159                             : en:01:18:25.159
01:22:46.712                             : en:01:22:46.712
01:25:17.863                             : en:01:25:17.863
01:29:25.360                             : en:01:29:25.360
01:33:36.402                             : en:01:33:36.402
Скриншоты:-

[Цитировать]



Показать сообщения:    

Текущее время: 09-Дек 20:22

Часовой пояс: UTC + 3


Вы не можете начинать темы
Вы не можете отвечать на сообщения
Вы не можете редактировать свои сообщения
Вы не можете удалять свои сообщения
Вы не можете голосовать в опросах
Вы не можете прикреплять файлы к сообщениям
Вы не можете скачивать файлы

!ВНИМАНИЕ!
Сайт не предоставляет электронные версии произведений, а занимается лишь коллекционированием и каталогизацией ссылок, присылаемых и публикуемых на форуме нашими читателями. Если вы являетесь правообладателем какого-либо представленного материала и не желаете, чтобы ссылка на него находилась в нашем каталоге, свяжитесь с нами, и мы незамедлительно удалим ее. Файлы для обмена на трекере предоставлены пользователями сайта, и администрация не несет ответственности за их содержание. Просьба не заливать файлы, защищенные авторскими правами, а также файлы нелегального содержания!