[ Сегодня идет свободное скачивание без начисления Download ]


Статистика раздачи
Нет
 
   
 
Top  
 
 
-Географ глобус пропил (2013) BDRip- Год выпуска: 2013
Производство: Россия
Жанр: Драма
Перевод: Не требуется (Русский)
Субтитры: Отсутствуют
Режиссер: Александр Велединский
Актеры: Константин Хабенский, Елена Лядова, Александр Робак, Евгения Брик, Анна Уколова, Агриппина Стеклова, Евгения Крегжде, Максим Лагашкин, Анфиса Черных, Анастасия Золотко
Описание фильма:
Молодой биолог Виктор Служкин от безденежья идет работать учителем географии в обычную пермскую школу. Он борется, а потом и дружит с учениками, конфликтует с завучем, ведет десятиклассников в поход — сплавляться по реке. Еще он пьет с друзьями вино, пытается ужиться с женой и водит в детский сад маленькую дочку. Он просто живет…
Дата мировой премьеры: 26 июля 2013
Дата российской премьеры: 7 ноября 2013, «Наше Кино»
Дата выхода DVD/Blu-Ray релиза: 16 января 2014, «CP Дистрибуция»

Продолжительность: 02:04:51
Качество видео: BDRip [1080p]
Видеокодек: MPEG-4 AVC/H.264
Видео: 1920x804, ~10.5 Mbps
Аудио 1: DTS, 6 ch, 1509 kbps (Русский)
Аудио 2: AC3, 6 ch, 640 kbps (Русский)

MediaInfo:

Общее
Уникальный идентификатор : 242756900525534408764727354259125516705 (0xB6A14744C169F547B9AE5F214C7B39A1)
Полное имя : Geograf.globus.propil.2013.BDRip.1080p.mkv
Формат : Matroska
Версия формата : Version 2
Размер файла : 11,0 Гбайт
Продолжительность : 2 ч. 4 м.
Общий поток : 12,6 Мбит/сек
Название фильма : CMEGRoup
Дата кодирования : UTC 2013-12-25 05:00:27
Программа кодирования : mkvmerge v6.3.0 ('You can't stop me!') built on Jun 28 2013 20:09:41
Библиотека кодирования : libebml v1.3.0 + libmatroska v1.4.0
Видео
Идентификатор : 1
Формат : AVC
Формат/Информация : Advanced Video Codec
Профиль формата : [email protected]
Параметр CABAC формата : Да
Параметр ReFrames формата : 4 кадра
Идентификатор кодека : V_MPEG4/ISO/AVC
Продолжительность : 2 ч. 4 м.
Битрейт : 10,5 Мбит/сек
Ширина : 1920 пикселей
Высота : 804 пикселя
Соотношение сторон : 2,40:1
Режим частоты кадров : Постоянный
Частота кадров : 24,000 кадра/сек
Цветовое пространство : YUV
Субдискретизация насыщенности : 4:2:0
Битовая глубина : 8 бит
Тип развёртки : Прогрессивная
Бит/(Пиксели*Кадры) : 0.283
Размер потока : 8,94 Гбайт (81%)
Заголовок : CMEGRoup
Библиотека кодирования : x264 core 138 r2358 9e941d1
Настройки программы : cabac=1 / ref=4 / deblock=1:-3:-3 / analyse=0x3:0x113 / me=umh / subme=11 / psy=1 / psy_rd=1.00:0.00 / mixed_ref=1 / me_range=32 / chroma_me=1 / trellis=2 / 8x8dct=1 / cqm=0 / deadzone=21,11 / fast_pskip=1 / chroma_qp_offset=-2 / threads=12 / lookahead_threads=1 / sliced_threads=0 / nr=0 / decimate=1 / interlaced=0 / bluray_compat=0 / constrained_intra=0 / bframes=5 / b_pyramid=2 / b_adapt=1 / b_bias=0 / direct=2 / weightb=1 / open_gop=0 / weightp=2 / keyint=240 / keyint_min=24 / scenecut=40 / intra_refresh=0 / rc_lookahead=40 / rc=2pass / mbtree=1 / bitrate=10500 / ratetol=1.0 / qcomp=0.60 / qpmin=10 / qpmax=51 / qpstep=4 / cplxblur=20.0 / qblur=0.5 / vbv_maxrate=62500 / vbv_bufsize=78125 / nal_hrd=none / ip_ratio=1.40 / aq=1:1.00
Язык : English
Default : Да
Forced : Нет
Аудио #1
Идентификатор : 2
Формат : DTS
Формат/Информация : Digital Theater Systems
Режим : 16
Параметр Endianness формата : Big
Идентификатор кодека : A_DTS
Продолжительность : 2 ч. 4 м.
Вид битрейта : Постоянный
Битрейт : 1509 Кбит/сек
Каналы : 6 каналов
Расположение каналов : Front: L C R, Side: L R, LFE
Частота : 48,0 КГц
Битовая глубина : 16 бит
Метод сжатия : С потерями
Размер потока : 1,32 Гбайт (12%)
Язык : Russian
Default : Да
Forced : Нет
Аудио #2
Идентификатор : 3
Формат : AC-3
Формат/Информация : Audio Coding 3
Расширение режима : CM (complete main)
Параметр Endianness формата : Big
Идентификатор кодека : A_AC3
Продолжительность : 2 ч. 4 м.
Вид битрейта : Постоянный
Битрейт : 640 Кбит/сек
Каналы : 6 каналов
Расположение каналов : Front: L C R, Side: L R, LFE
Частота : 48,0 КГц
Битовая глубина : 16 бит
Метод сжатия : С потерями
Размер потока : 572 Мбайт (5%)
Язык : Russian
Default : Нет
Forced : Нет
Меню
00:00:00.000 : ru:00:00:00.000
00:12:18.708 : ru:00:12:18.708
00:18:58.291 : ru:00:18:58.291
00:27:08.541 : ru:00:27:08.541
00:35:54.125 : ru:00:35:54.125
00:45:32.458 : ru:00:45:32.458
00:53:58.333 : ru:00:53:58.333
01:02:12.333 : ru:01:02:12.333
01:12:47.416 : ru:01:12:47.416
01:20:55.041 : ru:01:20:55.041
01:29:32.583 : ru:01:29:32.583
01:36:47.916 : ru:01:36:47.916
01:44:25.291 : ru:01:44:25.291
01:52:39.250 : ru:01:52:39.250
01:57:48.916 : ru:01:57:48.916
Скриншоты:

[Цитировать]



Показать сообщения:    

Текущее время: 07-Дек 00:52

Часовой пояс: UTC + 3


Вы не можете начинать темы
Вы не можете отвечать на сообщения
Вы не можете редактировать свои сообщения
Вы не можете удалять свои сообщения
Вы не можете голосовать в опросах
Вы не можете прикреплять файлы к сообщениям
Вы не можете скачивать файлы

!ВНИМАНИЕ!
Сайт не предоставляет электронные версии произведений, а занимается лишь коллекционированием и каталогизацией ссылок, присылаемых и публикуемых на форуме нашими читателями. Если вы являетесь правообладателем какого-либо представленного материала и не желаете, чтобы ссылка на него находилась в нашем каталоге, свяжитесь с нами, и мы незамедлительно удалим ее. Файлы для обмена на трекере предоставлены пользователями сайта, и администрация не несет ответственности за их содержание. Просьба не заливать файлы, защищенные авторскими правами, а также файлы нелегального содержания!