[ Сегодня идет свободное скачивание без начисления Download ]


Статистика раздачи
Нет
 
   
 
Top  
 
 
Облачный атлас / Cloud Atlas
«Всё взаимосвязано»
Страна: США, Германия, Гонконг, Сингапур
Жанр: фантастика, драма, детектив
Год выпуска: 2012
Продолжительность: 02:51:57 час.
Перевод: Профессиональный (полное дублирование)
Субтитры: Русские (forsed), Русские (R5), Русские (Voronine), Английские (forsed), Английские (SDH), Английские (SRT),
Cубтитры: русские
Оригинальная аудиодорожка: английский
Режиссер: Лана Вачовски, Том Тыквер, Энди Вачовски
В ролях: Том Хэнкс, Холли Берри, Джим Бродбент, Джим Стёрджесс, Бен Уишоу, Хьюго Уивинг, Пэ Ду На, Хью Грант, Сьюзен Сарандон, Джеймс Д’Арси
Описание: Шесть историй — пять реинкарнаций, происходящих в разное время, тесно переплетаются между собой…

Автор рипа:
Качество: BDRip-AVC | исх. Облачный атлас / Cloud Atlas (2012) 1080p BD-Remux
Продолжительность: 02:51:57 час.
Формат: MKV
Видео кодек: H.264
Аудио кодек: AC3
Видео: 1104x456 (2.40:1), 23,976 fps, H.264 ~2 711 kbps avg, 0.225 bit/pixel
Аудио 1: 48 kHz, AC3, 3/2 (L,C,R,l,r) + LFE ch, ~448.00 kbps avg | Профессиональный (полное дублирование)
Аудио 2: 48 kHz, AC3, 3/2 (L,C,R,l,r) + LFE ch, ~448.00 kbps avg | Оригинал (английский)
Премьера (мир) - 8 сентября 2012
Премьера (РФ) - 8 ноября 2012, «Двадцатый Век Фокс СНГ», «A Company»

MediaInfo | Log x264

Log x264

avs [info]: 1104x456p 1:1 @ 2500000/104271 fps (cfr)
x264 [info]: using SAR=1/1
x264 [info]: using cpu capabilities: MMX2 SSE2Fast SSSE3 FastShuffle SSE4.2 AVX
x264 [info]: profile High, level 4.1
x264 [info]: frame I:2946 Avg QP:19.50 size: 76017
x264 [info]: frame P:79903 Avg QP:20.51 size: 27103
x264 [info]: frame B:164522 Avg QP:23.27 size: 6722
x264 [info]: consecutive B-frames: 2.9% 14.8% 31.5% 50.8%
x264 [info]: mb I I16..4: 15.5% 63.5% 21.0%
x264 [info]: mb P I16..4: 0.3% 3.5% 0.7% P16..4: 26.9% 30.8% 14.8% 3.6% 0.5% skip:18.9%
x264 [info]: mb B I16..4: 0.0% 0.4% 0.1% B16..8: 37.0% 13.4% 2.5% direct: 4.3% skip:42.2% L0:37.4% L1:49.2% BI:13.4%
x264 [info]: 8x8 transform intra:71.7% inter:56.0%
x264 [info]: direct mvs spatial:89.6% temporal:10.4%
x264 [info]: coded y,uvDC,uvAC intra: 85.8% 83.2% 63.0% inter: 23.2% 20.4% 5.8%
x264 [info]: i16 v,h,dc,p: 20% 28% 3% 49%
x264 [info]: i8 v,h,dc,ddl,ddr,vr,hd,vl,hu: 10% 6% 4% 11% 16% 14% 15% 11% 12%
x264 [info]: i4 v,h,dc,ddl,ddr,vr,hd,vl,hu: 13% 7% 5% 10% 15% 13% 13% 11% 12%
x264 [info]: i8c dc,h,v,p: 41% 21% 17% 21%
x264 [info]: Weighted P-Frames: Y:4.9% UV:2.2%
x264 [info]: ref P L0: 69.1% 13.7% 8.1% 3.7% 3.0% 2.4%
x264 [info]: kb/s:2710.41
x264 [total]: encoded 247371 frames, 5.40 fps, 2710.41 kb/s
Общее
Уникальный идентификатор : 231570063680627558522034355765880490392 (0xAE36C5A0EA3D215AA623B224FAF30998)
Полное имя : D:\\[email protected]_^--\\фильмы\\My Rips\\Cloud.Atlas.BDRip-AVC.[US Transfer].Dub.Org.Subs.by.zOJIOtOi.mkv
Формат : Matroska
Версия формата : Version 4 / Version 2
Размер файла : 4,33 Гбайт
Продолжительность : 2 ч. 51 м.
Режим общего битрейта : Переменный
Общий поток : 3607 Кбит/сек
Название фильма : Cloud.Atlas.BDRip-AVC.[US Transfer].by.zOJIOtOi
Дата кодирования : UTC 2010-02-22 21:41:31
Программа кодирования : mkvmerge v5.9.0 (\'On The Loose\') built on Dec 9 2012 15:37:01
Библиотека кодирования : libebml v1.3.0 + libmatroska v1.4.0
Видео
Идентификатор : 1
Формат : AVC
Формат/Информация : Advanced Video Codec
Профиль формата : [email protected]
Параметр CABAC формата : Да
Параметр ReFrames формата : 6 кадров
Режим смешивания : Header stripping
Идентификатор кодека : V_MPEG4/ISO/AVC
Продолжительность : 2 ч. 51 м.
Вид битрейта : Переменный
Битрейт : 2711 Кбит/сек
Ширина : 1104 пикселя
Высота : 456 пикселей
Соотношение сторон : 2,40:1
Режим частоты кадров : Постоянный
Частота кадров : 23,976 кадра/сек
Цветовое пространство : YUV
Субдискретизация насыщенности : 4:2:0
Битовая глубина : 8 бит
Тип развёртки : Прогрессивная
Бит/(Пиксели*Кадры) : 0.225
Размер потока : 3,17 Гбайт (73%)
Заголовок : Cloud.Atlas.BDRip-AVC.[US Transfer].by.zOJIOtOi
Библиотека кодирования : x264 core 125 r2208 d9d2288
Настройки программы : cabac=1 / ref=14 / deblock=1:-2:-2 / analyse=0x3:0x133 / me=umh / subme=11 / psy=1 / psy_rd=1.10:0.00 / mixed_ref=1 / me_range=48 / chroma_me=1 / trellis=2 / 8x8dct=1 / cqm=0 / deadzone=21,11 / fast_pskip=1 / chroma_qp_offset=-2 / threads=6 / lookahead_threads=1 / sliced_threads=0 / nr=0 / decimate=1 / interlaced=0 / bluray_compat=1 / constrained_intra=0 / bframes=3 / b_pyramid=0 / b_adapt=2 / b_bias=0 / direct=3 / weightb=1 / open_gop=0 / weightp=1 / keyint=250 / keyint_min=1 / scenecut=40 / intra_refresh=0 / rc_lookahead=60 / rc=2pass / mbtree=1 / bitrate=2711 / ratetol=1.0 / qcomp=0.70 / qpmin=0 / qpmax=69 / qpstep=4 / cplxblur=20.0 / qblur=0.5 / vbv_maxrate=50000 / vbv_bufsize=62500 / nal_hrd=vbr / ip_ratio=1.40 / aq=1:0.00
Язык : English
Default : Да
Forced : Нет
Аудио #1
Идентификатор : 2
Формат : AC-3
Формат/Информация : Audio Coding 3
Расширение режима : CM (complete main)
Параметр Endianness формата : Big
Режим смешивания : Header stripping
Идентификатор кодека : A_AC3
Продолжительность : 2 ч. 51 м.
Вид битрейта : Постоянный
Битрейт : 448 Кбит/сек
Каналы : 6 каналов
Расположение каналов : Front: L C R, Side: L R, LFE
Частота : 48,0 КГц
Битовая глубина : 16 бит
Метод сжатия : С потерями
Размер потока : 551 Мбайт (12%)
Заголовок : Dub
Язык : Russian
Default : Да
Forced : Нет
Аудио #2
Идентификатор : 3
Формат : AC-3
Формат/Информация : Audio Coding 3
Расширение режима : CM (complete main)
Параметр Endianness формата : Big
Режим смешивания : Header stripping
Идентификатор кодека : A_AC3
Продолжительность : 2 ч. 51 м.
Вид битрейта : Постоянный
Битрейт : 448 Кбит/сек
Каналы : 6 каналов
Расположение каналов : Front: L C R, Side: L R, LFE
Частота : 48,0 КГц
Битовая глубина : 16 бит
Метод сжатия : С потерями
Размер потока : 551 Мбайт (12%)
Заголовок : Org
Язык : English
Default : Нет
Forced : Нет
Текст #1
Идентификатор : 4
Формат : UTF-8
Идентификатор кодека : S_TEXT/UTF8
Идентификатор кодека/Информация : UTF-8 Plain Text
Заголовок : Russian (Forsed)
Язык : Russian
Default : Да
Forced : Нет
Текст #2
Идентификатор : 5
Формат : UTF-8
Идентификатор кодека : S_TEXT/UTF8
Идентификатор кодека/Информация : UTF-8 Plain Text
Заголовок : Russian (R5)
Язык : Russian
Default : Нет
Forced : Нет
Текст #3
Идентификатор : 6
Формат : UTF-8
Идентификатор кодека : S_TEXT/UTF8
Идентификатор кодека/Информация : UTF-8 Plain Text
Заголовок : Russian (Voronine)
Язык : Russian
Default : Нет
Forced : Нет
Текст #4
Идентификатор : 7
Формат : UTF-8
Идентификатор кодека : S_TEXT/UTF8
Идентификатор кодека/Информация : UTF-8 Plain Text
Заголовок : English (Forsed)
Язык : English
Default : Нет
Forced : Нет
Текст #5
Идентификатор : 8
Формат : UTF-8
Идентификатор кодека : S_TEXT/UTF8
Идентификатор кодека/Информация : UTF-8 Plain Text
Заголовок : English (SDH)
Язык : English
Default : Нет
Forced : Нет
Текст #6
Идентификатор : 9
Формат : UTF-8
Идентификатор кодека : S_TEXT/UTF8
Идентификатор кодека/Информация : UTF-8 Plain Text
Заголовок : English (srt)
Язык : English
Default : Нет
Forced : Нет

Скриншоты

[Цитировать]



Показать сообщения:    

Текущее время: 04-Дек 07:00

Часовой пояс: UTC + 3


Вы не можете начинать темы
Вы не можете отвечать на сообщения
Вы не можете редактировать свои сообщения
Вы не можете удалять свои сообщения
Вы не можете голосовать в опросах
Вы не можете прикреплять файлы к сообщениям
Вы не можете скачивать файлы

!ВНИМАНИЕ!
Сайт не предоставляет электронные версии произведений, а занимается лишь коллекционированием и каталогизацией ссылок, присылаемых и публикуемых на форуме нашими читателями. Если вы являетесь правообладателем какого-либо представленного материала и не желаете, чтобы ссылка на него находилась в нашем каталоге, свяжитесь с нами, и мы незамедлительно удалим ее. Файлы для обмена на трекере предоставлены пользователями сайта, и администрация не несет ответственности за их содержание. Просьба не заливать файлы, защищенные авторскими правами, а также файлы нелегального содержания!