[ Today is free to download without increasing Download ]

DL-List and Torrent activity
Хулиганы 3
Green Street 3: Never Back Down
--Страна: Великобритания
Жанр: боевик
Год выпуска: 2013
Продолжительность: 01:33:17--Перевод: Zelesk
Озвучивание: Одноголосый закадровый Артём Белоконский
Cубтитры: нет
Режиссер: Джеймс Нанн / James Nunn--В ролях: Скотт Эдкинс, Джои Анса, Кейси Барнфилд, Дэвид Чунг, Билли Кук--Описание: В юности Дэнни входил в состав фанатской группировки «Элита Зелёной Улицы», члены которой привыкли любые вопросы решать с помощью кулаков. Повзрослев, Дэнни решил, что футбольное насилие больше его не привлекает, начал профессионально заниматься боевыми искусствами, и вскоре уже руководил собственным бойцовским клубом. Его младший брат Джоуи, которого он сам тренировал, пошел по его стопам и тоже присоединился к «Элите Зелёной Улицы». И однажды это привело Джоуи к гибели в одной из драк с фанатами другой команды...
Качество видео: HDRip
Формат видео: AVI
Видео: Xvid 720x304 24fps 1638Kbps
Аудио: Dolby AC3 48000Hz 6ch 448kbps--


Complete name                  : D:\TORRENTS\Green.Street.3.Never.Back.Down.2013.L1.HDRip.1400Mb.avi
Format                         : AVI
Format/Info                    : Audio Video Interleave
File size                      : 1.37 GiB
Duration                       : 1h 33mn
Overall bit rate               : 2 095 Kbps
Writing application            : VirtualDubMod (build 2540/release)
Writing library                : VirtualDubMod build 2540/release
ID                             : 0
Format                         : MPEG-4 Visual
Format profile                 : Advanced Simple@L5
Format settings, BVOP          : Yes
Format settings, QPel          : No
Format settings, GMC           : No warppoints
Format settings, Matrix        : Default (H.263)
Codec ID                       : XVID
Codec ID/Hint                  : XviD
Duration                       : 1h 33mn
Bit rate                       : 1 638 Kbps
Width                          : 720 pixels
Height                         : 304 pixels
Display aspect ratio           : 2.35:1
Frame rate                     : 24.000 fps
Color space                    : YUV
Chroma subsampling             : 4:2:0
Bit depth                      : 8 bits
Scan type                      : Progressive
Compression mode               : Lossy
Bits/(Pixel*Frame)             : 0.312
Stream size                    : 1.07 GiB (78%)
Writing library                : XviD 1.2.1 (UTC 2008-12-04)
ID                             : 1
Format                         : AC-3
Format/Info                    : Audio Coding 3
Mode extension                 : CM (complete main)
Format settings, Endianness    : Big
Codec ID                       : 2000
Duration                       : 1h 33mn
Bit rate mode                  : Constant
Bit rate                       : 448 Kbps
Channel count                  : 6 channels
Channel positions              : Front: L C R, Side: L R, LFE
Sampling rate                  : 48.0 KHz
Bit depth                      : 16 bits
Compression mode               : Lossy
Stream size                    : 299 MiB (21%)
Alignment                      : Split accross interleaves
Interleave, duration           : 42 ms (1.00 video frame)
Interleave, preload duration   : 500 ms




Display posts:    

Current time is: 24-Oct 08:12

All times are UTC + 3

You cannot post new topics in this forum
You cannot reply to topics in this forum
You cannot edit your posts in this forum
You cannot delete your posts in this forum
You cannot vote in polls in this forum
You cannot attach files in this forum
You cannot download files in this forum

The site does not give electronic versions of products, and is engaged only in a collecting and cataloguing of the references sent and published at a forum by our readers. If you are the legal owner of any submitted material and do not wish that the reference to it was in our catalogue, contact us and we shall immediately remove her. Files for an exchange on tracker are given by users of a site, and the administration does not bear the responsibility for their maintenance. The request to not fill in the files protected by copyrights, and also files of the illegal maintenance!