[ Сегодня идет свободное скачивание без начисления Download ]


Статистика раздачи
Нет
 
   
 
Top  
 
 
Хулиганы 3
Green Street 3: Never Back Down
--Страна: Великобритания
Жанр: боевик
Год выпуска: 2013
Продолжительность: 01:33:17--Перевод: Zelesk
Озвучивание: Одноголосый закадровый Артём Белоконский
Cубтитры: нет
Режиссер: Джеймс Нанн / James Nunn--В ролях: Скотт Эдкинс, Джои Анса, Кейси Барнфилд, Дэвид Чунг, Билли Кук--Описание: В юности Дэнни входил в состав фанатской группировки «Элита Зелёной Улицы», члены которой привыкли любые вопросы решать с помощью кулаков. Повзрослев, Дэнни решил, что футбольное насилие больше его не привлекает, начал профессионально заниматься боевыми искусствами, и вскоре уже руководил собственным бойцовским клубом. Его младший брат Джоуи, которого он сам тренировал, пошел по его стопам и тоже присоединился к «Элите Зелёной Улицы». И однажды это привело Джоуи к гибели в одной из драк с фанатами другой команды...
--Сэмпл
Качество видео: HDRip
Формат видео: AVI
Видео: Xvid 720x304 24fps 1638Kbps
Аудио: Dolby AC3 48000Hz 6ch 448kbps--

MediaInfo

General
Complete name                  : D:\TORRENTS\Green.Street.3.Never.Back.Down.2013.L1.HDRip.1400Mb.avi
Format                         : AVI
Format/Info                    : Audio Video Interleave
File size                      : 1.37 GiB
Duration                       : 1h 33mn
Overall bit rate               : 2 095 Kbps
Writing application            : VirtualDubMod 1.5.10.2 (build 2540/release)
Writing library                : VirtualDubMod build 2540/release
Video
ID                             : 0
Format                         : MPEG-4 Visual
Format profile                 : Advanced Simple@L5
Format settings, BVOP          : Yes
Format settings, QPel          : No
Format settings, GMC           : No warppoints
Format settings, Matrix        : Default (H.263)
Codec ID                       : XVID
Codec ID/Hint                  : XviD
Duration                       : 1h 33mn
Bit rate                       : 1 638 Kbps
Width                          : 720 pixels
Height                         : 304 pixels
Display aspect ratio           : 2.35:1
Frame rate                     : 24.000 fps
Color space                    : YUV
Chroma subsampling             : 4:2:0
Bit depth                      : 8 bits
Scan type                      : Progressive
Compression mode               : Lossy
Bits/(Pixel*Frame)             : 0.312
Stream size                    : 1.07 GiB (78%)
Writing library                : XviD 1.2.1 (UTC 2008-12-04)
Audio
ID                             : 1
Format                         : AC-3
Format/Info                    : Audio Coding 3
Mode extension                 : CM (complete main)
Format settings, Endianness    : Big
Codec ID                       : 2000
Duration                       : 1h 33mn
Bit rate mode                  : Constant
Bit rate                       : 448 Kbps
Channel count                  : 6 channels
Channel positions              : Front: L C R, Side: L R, LFE
Sampling rate                  : 48.0 KHz
Bit depth                      : 16 bits
Compression mode               : Lossy
Stream size                    : 299 MiB (21%)
Alignment                      : Split accross interleaves
Interleave, duration           : 42 ms (1.00 video frame)
Interleave, preload duration   : 500 ms

Скриншоты

-

[Цитировать]



Показать сообщения:    

Текущее время: 09-Дек 03:05

Часовой пояс: UTC + 3


Вы не можете начинать темы
Вы не можете отвечать на сообщения
Вы не можете редактировать свои сообщения
Вы не можете удалять свои сообщения
Вы не можете голосовать в опросах
Вы не можете прикреплять файлы к сообщениям
Вы не можете скачивать файлы

!ВНИМАНИЕ!
Сайт не предоставляет электронные версии произведений, а занимается лишь коллекционированием и каталогизацией ссылок, присылаемых и публикуемых на форуме нашими читателями. Если вы являетесь правообладателем какого-либо представленного материала и не желаете, чтобы ссылка на него находилась в нашем каталоге, свяжитесь с нами, и мы незамедлительно удалим ее. Файлы для обмена на трекере предоставлены пользователями сайта, и администрация не несет ответственности за их содержание. Просьба не заливать файлы, защищенные авторскими правами, а также файлы нелегального содержания!