[ Сегодня идет свободное скачивание без начисления Download ]


Статистика раздачи
Нет
 
   
 
Top  
 
 
-Остров везения - Год выпуска: 2013
Производство: Россия | Enjoy Movies
Жанр: Комедия
Перевод: Не требуется (русский) [лицензия]
Субтитры: Отсутствуют-Дата мировой премьеры: 5 декабря 2013
Дата российской премьеры: 5 декабря 2013, «Каропрокат»
Дата выхода DVD релиза: 14 января 2014, «Lizard Cinema Trade»
Дата выхода Blu-Ray релиза: 14 января 2014, «Lizard Cinema Trade»-Режиссер: Кирилл Козлов-Продюсер: Георгий Малков, Сарик Андреасян, Гевонд Андреасян-Актеры: Роман Юнусов, Светлана Ходченкова, Агния Дитковските, Анна Хилькевич, Алексей Чумаков, Татьяна Орлова, Даша Астафьева, Юлия Гришина, Александр Сазонов, Мария Кравцова-Описание фильма:
Тихоокеанский лайнер. Полуобнажённые красотки, участвующие в конкурсе красоты. Шампанское и голубой океан… О таком бывшая звезда телевидения, а ныне ведущий дешёвых свадеб, даже и не мечтал. Однако круиз мечты неожиданно прервётся цепью невероятных событий. И наш герой окажется на необитаемом острове, в окружении трёх финалисток конкурса — принципиальной стервы, паникёрши и классической блондинки.
Что делать? Ведь лишившись возможности выиграть вожделенную корону, девушки его наверняка порвут на кусочки… Значит надо продолжать конкурс! Сделав вид, что так задумано, Роман начинает представление. Он убеждает девиц, что на острове понатыканы скрытые камеры и микрофоны, шоу выводится в эфир одного из главных каналов и вся страна теперь следит за финалом конкурса красоты! И всего-то нужно пройти пару испытаний под прицелом вон того ближайшего кокоса… то есть камеры. И пока девушки включаются в соревнование, наш герой ищет путь спасения с острова…-
Продолжительность: 01:16:30
Качество видео: DVDRip
Видеокодек: Xvid
Битрейт видео: ~ 2163 Кбит/сек
Размер кадра: 720 x 304 (2.368) at 25.000 fps
Аудиокодек: AC3 5.1
Битрейт аудио: 384 Кбит/сек, 48,0 КГц

Знаете ли вы, что...

• Фильм снимался на острове Пхукет (Таиланд).

MediaInfo:

Полное имя                               : G:\Ostrov.vezenja.2013.O.DVDRip.1400MB.avi
Формат                                   : AVI
Формат/Информация                        : Audio Video Interleave
Размер файла                             : 1,37 Гбайт
Продолжительность                        : 1 ч. 16 м.
Общий поток                              : 2556 Кбит/сек
Программа кодирования                    : VirtualDubMod 1.5.10.2 (build 2540/release)
Библиотека кодирования                   : VirtualDubMod build 2540/release
Видео
Идентификатор                            : 0
Формат                                   : MPEG-4 Visual
Профиль формата                          : Advanced [email protected]
Параметр BVOP формата                    : 1
Параметр QPel формата                    : Нет
Параметр GMC формата                     : Без точки перехода
Параметр матрицы формата                 : Default (MPEG)
Идентификатор кодека                     : XVID
Идентификатор кодека/Подсказка           : XviD
Продолжительность                        : 1 ч. 16 м.
Битрейт                                  : 2163 Кбит/сек
Ширина                                   : 720 пикселей
Высота                                   : 304 пикселя
Соотношение сторон                       : 2,35:1
Частота кадров                           : 25,000 кадров/сек
Цветовое пространство                    : YUV
Субдискретизация насыщенности            : 4:2:0
Битовая глубина                          : 8 бит
Тип развёртки                            : Прогрессивная
Метод сжатия                             : С потерями
Бит/(Пиксели*Кадры)                      : 0.395
Размер потока                            : 1,16 Гбайт (85%)
Библиотека кодирования                   : XviD 1.2.1 (UTC 2008-12-04)
Аудио
Идентификатор                            : 1
Формат                                   : AC-3
Формат/Информация                        : Audio Coding 3
Расширение режима                        : CM (complete main)
Параметр Endianness формата              : Big
Идентификатор кодека                     : 2000
Продолжительность                        : 1 ч. 16 м.
Вид битрейта                             : Постоянный
Битрейт                                  : 384 Кбит/сек
Каналы                                   : 6 каналов
Расположение каналов                     : Front: L C R, Side: L R, LFE
Частота                                  : 48,0 КГц
Битовая глубина                          : 16 бит
Метод сжатия                             : С потерями
Размер потока                            : 210 Мбайт (15%)
Выравнивание                             : Разделение по промежуткам
Продолжительность промежутка             : 40  мс. (1,00 видеокадр)
Время предзагрузки промежутка            : 500  мс.

[Цитировать]

А без скриншотов это нормально?
Или модераторам всё можно?

[Цитировать]

Нет не нормально, и модератором можно не все разберемся спасибо за внимательность!

[Цитировать]

Топик был перенесен из форума Новинки кинопроката в форум Комедия
Henkok



Показать сообщения:    

Текущее время: 04-Дек 07:02

Часовой пояс: UTC + 3


Вы не можете начинать темы
Вы не можете отвечать на сообщения
Вы не можете редактировать свои сообщения
Вы не можете удалять свои сообщения
Вы не можете голосовать в опросах
Вы не можете прикреплять файлы к сообщениям
Вы не можете скачивать файлы

!ВНИМАНИЕ!
Сайт не предоставляет электронные версии произведений, а занимается лишь коллекционированием и каталогизацией ссылок, присылаемых и публикуемых на форуме нашими читателями. Если вы являетесь правообладателем какого-либо представленного материала и не желаете, чтобы ссылка на него находилась в нашем каталоге, свяжитесь с нами, и мы незамедлительно удалим ее. Файлы для обмена на трекере предоставлены пользователями сайта, и администрация не несет ответственности за их содержание. Просьба не заливать файлы, защищенные авторскими правами, а также файлы нелегального содержания!