[ Сегодня идет свободное скачивание без начисления Download ]


Статистика раздачи
Нет
 
   
 
Top  
 
 
-Святые из Бундока / The Boondock Saints (1999) BDRip- Год выпуска: 1999
Жанр: Боевик, Криминал
Описание фильма:
Два обычных ирландских парня, братья Коннор и Мерфи, преспокойно жили и работали в своем родном Бостоне, пока в один прекрасный день на них не снизошло озарение: сам Бог послал их на землю с особой миссией, наделив святой силой, чтобы очистить мир от зла. И братья взялись за дело со всей серьезностью, присущей ирландцам.
Режиссер: Трой Даффи
Актеры: Уиллем Дэфоу, Шон Пэтрик Флэнери, Норман Ридус, Дэвид Делла Рокко, Билли Коннолли, Дэвид Ферри, Брайан Мэхоуни, Боб Марли, Ричард Фицпэтрик, Уильям Янг, Роберт Пембертон, Билл Крэйг
Продолжительность: 01:48:27
Качество видео: BDRip
Перевод: Многоголосый закадровый (2 варианта) , Одноголосый закадровый
[imdb]tt0144117[/imdb] [kp]4917[/kp]
Видеокодек: MPEG-4 AVC/H.264
Битрейт видео: ~1950 Kbps
Размер кадра: 944x400
Аудио 1: Dolby AC3 48000Hz 2Сh stereo 160 Kbps MVO Tycoon
Аудио 2: Dolby AC3 48000Hz 2Сh stereo 160 Kbps MVO Total DVD
Аудио 3: Dolby AC3 48000Hz 2Сh stereo 160 Kbps VO Гоблин

MediaInfo

General
Уникальный идентификатор : 243406633883086423952704554815457773742 (0xB71E6998AB41F82A83DE73151066C8AE)
Полное имя : Святые из Бундока.mkv
Формат : Matroska
Версия формата : Version 4 / Version 2
Размер файла : 1.83 GiB
Продолжительность : 1h 48mn
Общий поток : 2 413 Kbps
Название фильма : Святые из Бундока (rip by smithland)
Дата кодирования : UTC 2010-02-22 21:41:31
Программа кодирования : mkvmerge v5.9.0 ('On The Loose')
Библиотека кодирования : libebml v1.3.0 + libmatroska v1.4.0
Attachment : Yes
Video
Идентификатор : 1
Формат : AVC
Формат/Информация : Advanced Video Codec
Профиль формата : [email protected]
Параметр CABAC формата : Yes
Параметр ReFrames формата : 10 frames
Идентификатор кодека : V_MPEG4/ISO/AVC
Продолжительность : 1h 48mn
Битрейт : 1 950 Kbps
Ширина : 944 pixels
Высота : 400 pixels
Соотношение сторон : 2.35:1
Режим частоты кадров : Constant
Частота кадров : 23.976 fps
Цветовое пространство : YUV
Субдискретизация насыщенности : 4:2:0
Битовая глубина : 8 bits
Тип развёртки : Progressive
Бит/(Пиксели*Кадры) : 0.215
Размер потока : 1.43 GiB (78%)
Библиотека кодирования : x264 core 130 r2273 b3065e6
Настройки программы : cabac=1 / ref=10 / deblock=1:-2:1 / analyse=0x3:0x133 / me=umh / subme=11 / psy=1 / psy_rd=1.10:0.60 / mixed_ref=1 / me_range=28 / chroma_me=1 / trellis=2 / 8x8dct=1 / cqm=0 / deadzone=21,11 / fast_pskip=1 / chroma_qp_offset=-4 / threads=12 / lookahead_threads=1 / sliced_threads=0 / nr=0 / decimate=0 / interlaced=0 / bluray_compat=0 / constrained_intra=0 / bframes=9 / b_pyramid=2 / b_adapt=1 / b_bias=0 / direct=1 / weightb=1 / open_gop=0 / weightp=2 / keyint=240 / keyint_min=24 / scenecut=40 / intra_refresh=0 / rc_lookahead=40 / rc=abr / mbtree=1 / bitrate=1950 / ratetol=1.0 / qcomp=0.60 / qpmin=0 / qpmax=69 / qpstep=4 / ip_ratio=1.40 / aq=1:1.10
Язык : Russian
Default : Yes
Forced : Yes
Color primaries : BT.709
Transfer characteristics : BT.709
Matrix coefficients : BT.709
Audio #1
Идентификатор : 2
Формат : AC-3
Формат/Информация : Audio Coding 3
Профиль формата : Dolby Digital
Расширение режима : CM (complete main)
Параметр Endianness формата : Big
Идентификатор кодека : A_AC3
Продолжительность : 1h 48mn
Вид битрейта : Constant
Битрейт : 160 Kbps
Каналы : 2 channels
Расположение каналов : Front: L R
Частота : 48.0 KHz
Битовая глубина : 16 bits
Метод сжатия : Lossy
Размер потока : 124 MiB (7%)
Заголовок : MVO Tycoon
Язык : Russian
Default : Yes
Forced : Yes
Audio #2
Идентификатор : 3
Формат : AC-3
Формат/Информация : Audio Coding 3
Профиль формата : Dolby Digital
Расширение режима : CM (complete main)
Параметр Endianness формата : Big
Идентификатор кодека : A_AC3
Продолжительность : 1h 48mn
Вид битрейта : Constant
Битрейт : 160 Kbps
Каналы : 2 channels
Расположение каналов : Front: L R
Частота : 48.0 KHz
Битовая глубина : 16 bits
Метод сжатия : Lossy
Размер потока : 124 MiB (7%)
Заголовок : MVO Total DVD
Язык : Russian
Default : No
Forced : No
Audio #3
Идентификатор : 4
Формат : AC-3
Формат/Информация : Audio Coding 3
Профиль формата : Dolby Digital
Расширение режима : CM (complete main)
Параметр Endianness формата : Big
Идентификатор кодека : A_AC3
Продолжительность : 1h 48mn
Вид битрейта : Constant
Битрейт : 160 Kbps
Каналы : 2 channels
Расположение каналов : Front: L R
Частота : 48.0 KHz
Битовая глубина : 16 bits
Метод сжатия : Lossy
Размер потока : 124 MiB (7%)
Заголовок : VO Гоблин
Язык : Russian
Default : No
Forced : No

[Цитировать]



Показать сообщения:    

Текущее время: 04-Дек 02:57

Часовой пояс: UTC + 3


Вы не можете начинать темы
Вы не можете отвечать на сообщения
Вы не можете редактировать свои сообщения
Вы не можете удалять свои сообщения
Вы не можете голосовать в опросах
Вы не можете прикреплять файлы к сообщениям
Вы не можете скачивать файлы

!ВНИМАНИЕ!
Сайт не предоставляет электронные версии произведений, а занимается лишь коллекционированием и каталогизацией ссылок, присылаемых и публикуемых на форуме нашими читателями. Если вы являетесь правообладателем какого-либо представленного материала и не желаете, чтобы ссылка на него находилась в нашем каталоге, свяжитесь с нами, и мы незамедлительно удалим ее. Файлы для обмена на трекере предоставлены пользователями сайта, и администрация не несет ответственности за их содержание. Просьба не заливать файлы, защищенные авторскими правами, а также файлы нелегального содержания!