[ Сегодня идет свободное скачивание без начисления Download ]


Статистика раздачи
Нет
 
   
 
Top  
 
 
-[sh]Мины в фарватере[/sh]- Страна: Россия
Производство: Ментор Синема
Год выпуска: 2008
Жанр: Комедия
Режиссёр: Николай Гейко
В ролях: Андрей Фролов (II), Артём Семакин, Станислав Дужников, Светлана Антонова, Сергей Степанченко, Николай Добрынин, Александр Тютин, Людмила Аринина, Лесь Сердюк, Владимир Долинский, Александр Панкратов-Чёрный, Екатерина Копанова, Светлана Иванова, Ольга Балашова, Шухрат Иргашев, Ольга Спиридонова, Александр Пашутин, Михаил Васьков, Михаил Богдасаров, Сергей Лосев, Алексей Анненков, Любовь Руденко, Ирина Лосева, Сева Пичугин, Александра Бледная, Евгения Лоза, Татьяна Агафонова, Андрей Ташков, Алексей Красноженюк, Карина Реука, Константин Ивин, Олег Соколовский, Иван Лазарев (II), Иван Кожевников, Александра Живова, Алёна Ивченко
Перевод: Не требуется
Субтитры: Отсутствуют
Описание: Если говорить практически, то «Мины в фарватере!» — это команда, которую подаёт матрос-сигнальщик, обнаружив по ходу движения корабля смертельную опасность, а если философски — фарватер нашей жизни напичкан самыми разнообразными минами. Эта история рассказывает не только о суровой жизни военных моряков, но и о любви, верности, дружбе.



Качество: DVDRip
Продолжительность: 8 x 00:52:00
Формат: AVI
Видео кодек: XviD
Аудио кодек: AC3
Видео: 720x400 (16:9), 25 fps, XviD , ~1489 kbps avg, 0.207 bit/pixel
Аудио: 48 kHz, Dolby Digital AC3, 3/2 (L,C,R,l,r) + LFE ch, ~384.00 kbps avg

MediaInfo

General
Complete name : C:mini_v_farvatere_e04.avi
Format : AVI
Format/Info : Audio Video Interleave
File size : 697 MiB
Duration : 51mn 44s
Overall bit rate : 1 885 Kbps
Movie name : M.F.Title4.DVDRip
Writing application : Lavf52.17.0
Original source form/Name : M.F
Video
ID : 0
Format : MPEG-4 Visual
Format profile : Simple@L3
Format settings, BVOP : No
Format settings, QPel : No
Format settings, GMC : No warppoints
Format settings, Matrix : Default (H.263)
Codec ID : XVID
Codec ID/Hint : XviD
Duration : 51mn 44s
Bit rate : 1 490 Kbps
Width : 720 pixels
Height : 400 pixels
Display aspect ratio : 16:9
Frame rate : 25.000 fps
Color space : YUV
Chroma subsampling : 4:2:0
Bit depth : 8 bits
Scan type : Progressive
Compression mode : Lossy
Bits/(Pixel*Frame) : 0.207
Stream size : 551 MiB (79%)
Writing library : XviD 1.1.2 (UTC 2006-11-01)
Audio
ID : 1
Format : AC-3
Format/Info : Audio Coding 3
Mode extension : CM (complete main)
Codec ID : 2000
Duration : 51mn 43s
Bit rate mode : Constant
Bit rate : 384 Kbps
Channel(s) : 6 channels
Channel positions : Front: L C R, Side: L R, LFE
Sampling rate : 48.0 KHz
Bit depth : 16 bits
Compression mode : Lossy
Stream size : 142 MiB (20%)
Alignment : Aligned on interleaves
Interleave, duration : 32 ms (0.80 video frame)

[Цитировать]



Показать сообщения:    

Текущее время: 11-Дек 12:55

Часовой пояс: UTC + 3


Вы не можете начинать темы
Вы не можете отвечать на сообщения
Вы не можете редактировать свои сообщения
Вы не можете удалять свои сообщения
Вы не можете голосовать в опросах
Вы не можете прикреплять файлы к сообщениям
Вы не можете скачивать файлы

!ВНИМАНИЕ!
Сайт не предоставляет электронные версии произведений, а занимается лишь коллекционированием и каталогизацией ссылок, присылаемых и публикуемых на форуме нашими читателями. Если вы являетесь правообладателем какого-либо представленного материала и не желаете, чтобы ссылка на него находилась в нашем каталоге, свяжитесь с нами, и мы незамедлительно удалим ее. Файлы для обмена на трекере предоставлены пользователями сайта, и администрация не несет ответственности за их содержание. Просьба не заливать файлы, защищенные авторскими правами, а также файлы нелегального содержания!