[ Сегодня идет свободное скачивание без начисления Download ]


Статистика раздачи
Нет
 
   
 
 
 
-Менталист / The Mentalist - Русское название: Менталист
Оригинальное название: The Mentalist
Год выпуска: 2013-2014
Жанр: Детектив
Перевод: Профессиональный многоголосый Baibako + Оригинал (английский)

Дата мировой премьеры: с 29.09.2013 по ...
Дата российской премьеры: где-то весной
Режиссер: Крис Лонг, Джон Шоуолтер, Чарльз Бисон
Актеры: Саймон Бейкер, Робин Танни, Тим Кенг, Овайн Йомэн, Аманда Риджетти, Онжаню Эллис, Грегори Итцин, Прюитт Тэйлор Винс, Майкл Гэстон, Эрик Винтер
Описание фильма: Патрик Джейн — детектив и независимый консультант из Калифорнийского Бюро Расследований (КБР), он использует свои отточенные, как лезвие, навыки наблюдения для раскрытия тяжких преступлений. В самом Бюро Джейн известен за частые нарушения протокола, а также за его звездное прошлое: он работал медиумом, однако теперь сам признает, что симулировал паранормальные способности. Роль Джейна в раскрытии целой серии загадочных преступлений высоко ценится коллегами. Но суровый старший агент Тереза Лисбон против того, чтоб Джейн работал с ее отрядом, и то вынужденно признает его успехи, то критикует его за театральность, нарциссизм и отсутствие границ.

1 серия

Общее
Полное имя : E:\UPLOADED\СЕРИАЛЫ\MENTALIST\Менталист Rip\Rip Менталист 6 сезон\Mentalist.s06e01.WEB-DLRip.x264.Rus.Eng.BaibaKo.tv.mp4
Формат : MPEG-4
Профиль формата : Base Media
Идентификатор кодека : isom
Размер файла : 574 Мбайт
Продолжительность : 41 м.
Режим общего битрейта : Переменный
Общий поток : 1923 Кбит/сек
Дата кодирования : UTC 2013-10-06 23:33:39
Дата пометки : UTC 2013-10-06 23:33:39
Видео
Идентификатор : 1
Формат : AVC
Формат/Информация : Advanced Video Codec
Профиль формата : [email protected]
Параметр CABAC формата : Нет
Параметр ReFrames формата : 3 кадра
Идентификатор кодека : avc1
Идентификатор кодека/Информация : Advanced Video Coding
Продолжительность : 41 м.
Вид битрейта : Переменный
Битрейт : 1536 Кбит/сек
Максимальный битрейт : 10000 Кбит/сек
Ширина : 720 пикселей
Высота : 400 пикселей
Соотношение сторон : 16:9
Режим частоты кадров : Постоянный
Частота кадров : 23,976 кадра/сек
Цветовое пространство : YUV
Субдискретизация насыщенности : 4:2:0
Битовая глубина : 8 бит
Тип развёртки : Прогрессивная
Бит/(Пиксели*Кадры) : 0.222
Размер потока : 458 Мбайт (80%)
Заголовок : The Mentalist S06E01 The Desert Rose 720p WEB-DL DD5 1 H 264-ECI
Библиотека кодирования : x264 core 129 r2245 bc13772
Настройки программы : cabac=0 / ref=3 / deblock=1:0:0 / analyse=0x1:0x111 / me=hex / subme=7 / psy=1 / psy_rd=1.00:0.00 / mixed_ref=1 / me_range=16 / chroma_me=1 / trellis=1 / 8x8dct=0 / cqm=0 / deadzone=21,11 / fast_pskip=1 / chroma_qp_offset=-2 / threads=12 / lookahead_threads=2 / sliced_threads=0 / nr=0 / decimate=1 / interlaced=0 / bluray_compat=0 / constrained_intra=0 / bframes=0 / weightp=0 / keyint=240 / keyint_min=24 / scenecut=40 / intra_refresh=0 / rc_lookahead=40 / rc=2pass / mbtree=1 / bitrate=1536 / ratetol=1.0 / qcomp=0.60 / qpmin=0 / qpmax=69 / qpstep=4 / cplxblur=20.0 / qblur=0.5 / vbv_maxrate=10000 / vbv_bufsize=10000 / nal_hrd=vbr / ip_ratio=1.40 / aq=1:1.00
Дата кодирования : UTC 2013-10-04 22:18:44
Дата пометки : UTC 2013-10-06 23:35:27
Аудио #1
Идентификатор : 2
Формат : AAC
Формат/Информация : Advanced Audio Codec
Профиль формата : LC
Идентификатор кодека : 40
Продолжительность : 41 м.
Вид битрейта : Переменный
Битрейт : 192 Кбит/сек
Максимальный битрейт : 200 Кбит/сек
Каналы : 2 канала
Расположение каналов : Front: L R
Частота : 48,0 КГц
Метод сжатия : С потерями
Размер потока : 57,3 Мбайт (10%)
Язык : Russian
Дата кодирования : UTC 2013-10-06 20:42:23
Дата пометки : UTC 2013-10-06 23:35:27
Аудио #2
Идентификатор : 3
Формат : AAC
Формат/Информация : Advanced Audio Codec
Профиль формата : LC
Идентификатор кодека : 40
Продолжительность : 41 м.
Вид битрейта : Переменный
Битрейт : 192 Кбит/сек
Максимальный битрейт : 199 Кбит/сек
Каналы : 2 канала
Расположение каналов : Front: L R
Частота : 48,0 КГц
Метод сжатия : С потерями
Размер потока : 57,3 Мбайт (10%)
Язык : English
Дата кодирования : UTC 2013-10-06 23:28:58
Дата пометки : UTC 2013-10-06 23:35:27

2 серия

Общее
Полное имя : D:\UPLOADED\СЕРИАЛЫ\MENTALIST\Менталист Rip\Rip Менталист 6 сезон\Mentalist.s06e02.WEB-DLRip.x264.Rus.Eng.BaibaKo.tv.mp4
Формат : MPEG-4
Профиль формата : Base Media
Идентификатор кодека : isom
Размер файла : 574 Мбайт
Продолжительность : 41 м.
Режим общего битрейта : Переменный
Общий поток : 1923 Кбит/сек
Дата кодирования : UTC 2013-10-14 01:52:51
Дата пометки : UTC 2013-10-14 01:52:51
Видео
Идентификатор : 1
Формат : AVC
Формат/Информация : Advanced Video Codec
Профиль формата : [email protected]
Параметр CABAC формата : Нет
Параметр ReFrames формата : 3 кадра
Идентификатор кодека : avc1
Идентификатор кодека/Информация : Advanced Video Coding
Продолжительность : 41 м.
Вид битрейта : Переменный
Битрейт : 1536 Кбит/сек
Максимальный битрейт : 10000 Кбит/сек
Ширина : 720 пикселей
Высота : 400 пикселей
Соотношение сторон : 16:9
Режим частоты кадров : Постоянный
Частота кадров : 23,976 кадра/сек
Цветовое пространство : YUV
Субдискретизация насыщенности : 4:2:0
Битовая глубина : 8 бит
Тип развёртки : Прогрессивная
Бит/(Пиксели*Кадры) : 0.222
Размер потока : 458 Мбайт (80%)
Заголовок : The Mentalist S06E02 Black-Winged Redbird 720p WEB-DL DD5 1 H 264-ECI
Библиотека кодирования : x264 core 129 r2245 bc13772
Настройки программы : cabac=0 / ref=3 / deblock=1:0:0 / analyse=0x1:0x111 / me=hex / subme=7 / psy=1 / psy_rd=1.00:0.00 / mixed_ref=1 / me_range=16 / chroma_me=1 / trellis=1 / 8x8dct=0 / cqm=0 / deadzone=21,11 / fast_pskip=1 / chroma_qp_offset=-2 / threads=6 / lookahead_threads=1 / sliced_threads=0 / nr=0 / decimate=1 / interlaced=0 / bluray_compat=0 / constrained_intra=0 / bframes=0 / weightp=0 / keyint=240 / keyint_min=24 / scenecut=40 / intra_refresh=0 / rc_lookahead=40 / rc=2pass / mbtree=1 / bitrate=1536 / ratetol=1.0 / qcomp=0.60 / qpmin=0 / qpmax=69 / qpstep=4 / cplxblur=20.0 / qblur=0.5 / vbv_maxrate=10000 / vbv_bufsize=10000 / nal_hrd=vbr / ip_ratio=1.40 / aq=1:1.00
Дата кодирования : UTC 2013-10-14 01:36:28
Дата пометки : UTC 2013-10-14 01:53:09
Аудио #1
Идентификатор : 2
Формат : AAC
Формат/Информация : Advanced Audio Codec
Профиль формата : LC
Идентификатор кодека : 40
Продолжительность : 41 м.
Вид битрейта : Переменный
Битрейт : 192 Кбит/сек
Максимальный битрейт : 199 Кбит/сек
Каналы : 2 канала
Расположение каналов : Front: L R
Частота : 48,0 КГц
Метод сжатия : С потерями
Размер потока : 57,3 Мбайт (10%)
Язык : Russian
Дата кодирования : UTC 2013-10-13 22:50:20
Дата пометки : UTC 2013-10-14 01:53:09
Аудио #2
Идентификатор : 3
Формат : AAC
Формат/Информация : Advanced Audio Codec
Профиль формата : LC
Идентификатор кодека : 40
Продолжительность : 41 м.
Вид битрейта : Переменный
Битрейт : 192 Кбит/сек
Максимальный битрейт : 199 Кбит/сек
Каналы : 2 канала
Расположение каналов : Front: L R
Частота : 48,0 КГц
Метод сжатия : С потерями
Размер потока : 57,3 Мбайт (10%)
Язык : English
Дата кодирования : UTC 2013-10-13 22:59:25
Дата пометки : UTC 2013-10-14 01:53:09

3 серия

Общее
Полное имя : D:\UPLOADED\СЕРИАЛЫ\MENTALIST\Менталист Rip\Rip Менталист 6 сезон\Mentalist.s06e03.WEB-DLRip.x264.Rus.Eng.BaibaKo.tv.mp4
Формат : MPEG-4
Профиль формата : Base Media
Идентификатор кодека : isom
Размер файла : 579 Мбайт
Продолжительность : 42 м.
Режим общего битрейта : Переменный
Общий поток : 1924 Кбит/сек
Дата кодирования : UTC 2013-10-19 19:14:45
Дата пометки : UTC 2013-10-19 19:14:45
Видео
Идентификатор : 1
Формат : AVC
Формат/Информация : Advanced Video Codec
Профиль формата : [email protected]
Параметр CABAC формата : Нет
Параметр ReFrames формата : 3 кадра
Идентификатор кодека : avc1
Идентификатор кодека/Информация : Advanced Video Coding
Продолжительность : 42 м.
Вид битрейта : Переменный
Битрейт : 1536 Кбит/сек
Максимальный битрейт : 10000 Кбит/сек
Ширина : 720 пикселей
Высота : 400 пикселей
Соотношение сторон : 16:9
Режим частоты кадров : Постоянный
Частота кадров : 23,976 кадра/сек
Цветовое пространство : YUV
Субдискретизация насыщенности : 4:2:0
Битовая глубина : 8 бит
Тип развёртки : Прогрессивная
Бит/(Пиксели*Кадры) : 0.222
Размер потока : 462 Мбайт (80%)
Заголовок : The Mentalist S06E03 Wedding In Red 720p WEB-DL DD5 1 H 264-ECI
Библиотека кодирования : x264 core 129 r2245 bc13772
Настройки программы : cabac=0 / ref=3 / deblock=1:0:0 / analyse=0x1:0x111 / me=hex / subme=7 / psy=1 / psy_rd=1.00:0.00 / mixed_ref=1 / me_range=16 / chroma_me=1 / trellis=1 / 8x8dct=0 / cqm=0 / deadzone=21,11 / fast_pskip=1 / chroma_qp_offset=-2 / threads=12 / lookahead_threads=2 / sliced_threads=0 / nr=0 / decimate=1 / interlaced=0 / bluray_compat=0 / constrained_intra=0 / bframes=0 / weightp=0 / keyint=240 / keyint_min=24 / scenecut=40 / intra_refresh=0 / rc_lookahead=40 / rc=2pass / mbtree=1 / bitrate=1536 / ratetol=1.0 / qcomp=0.60 / qpmin=0 / qpmax=69 / qpstep=4 / cplxblur=20.0 / qblur=0.5 / vbv_maxrate=10000 / vbv_bufsize=10000 / nal_hrd=vbr / ip_ratio=1.40 / aq=1:1.00
Дата кодирования : UTC 2013-10-19 15:38:54
Дата пометки : UTC 2013-10-19 19:16:07
Аудио #1
Идентификатор : 2
Формат : AAC
Формат/Информация : Advanced Audio Codec
Профиль формата : LC
Идентификатор кодека : 40
Продолжительность : 42 м.
Вид битрейта : Переменный
Битрейт : 192 Кбит/сек
Максимальный битрейт : 198 Кбит/сек
Каналы : 2 канала
Расположение каналов : Front: L R
Частота : 48,0 КГц
Метод сжатия : С потерями
Размер потока : 57,8 Мбайт (10%)
Язык : Russian
Дата кодирования : UTC 2013-10-19 17:53:36
Дата пометки : UTC 2013-10-19 19:16:07
Аудио #2
Идентификатор : 3
Формат : AAC
Формат/Информация : Advanced Audio Codec
Профиль формата : LC
Идентификатор кодека : 40
Продолжительность : 42 м.
Вид битрейта : Переменный
Битрейт : 192 Кбит/сек
Максимальный битрейт : 197 Кбит/сек
Каналы : 2 канала
Расположение каналов : Front: L R
Частота : 48,0 КГц
Метод сжатия : С потерями
Размер потока : 57,8 Мбайт (10%)
Язык : English
Дата кодирования : UTC 2013-10-19 18:01:46
Дата пометки : UTC 2013-10-19 19:16:07

4 серия

Общее
Полное имя : D:\UPLOADED\СЕРИАЛЫ\MENTALIST\Менталист Rip\Rip Менталист 6 сезон\Mentalist.s06e04.WEB-DLRip.x264.Rus.Eng.BaibaKo.tv.mp4
Формат : MPEG-4
Профиль формата : Base Media
Идентификатор кодека : isom
Размер файла : 593 Мбайт
Продолжительность : 43 м.
Режим общего битрейта : Переменный
Общий поток : 1924 Кбит/сек
Дата кодирования : UTC 2013-10-22 03:04:04
Дата пометки : UTC 2013-10-22 03:04:04
Видео
Идентификатор : 1
Формат : AVC
Формат/Информация : Advanced Video Codec
Профиль формата : [email protected]
Параметр CABAC формата : Нет
Параметр ReFrames формата : 3 кадра
Идентификатор кодека : avc1
Идентификатор кодека/Информация : Advanced Video Coding
Продолжительность : 43 м.
Вид битрейта : Переменный
Битрейт : 1536 Кбит/сек
Максимальный битрейт : 10000 Кбит/сек
Ширина : 720 пикселей
Высота : 400 пикселей
Соотношение сторон : 16:9
Режим частоты кадров : Постоянный
Частота кадров : 23,976 кадра/сек
Цветовое пространство : YUV
Субдискретизация насыщенности : 4:2:0
Битовая глубина : 8 бит
Тип развёртки : Прогрессивная
Бит/(Пиксели*Кадры) : 0.222
Размер потока : 473 Мбайт (80%)
Заголовок : The Mentalist S06E04 Red Listed 720p WEB-DL DD5 1 H 264-ECI
Библиотека кодирования : x264 core 129 r2245 bc13772
Настройки программы : cabac=0 / ref=3 / deblock=1:0:0 / analyse=0x1:0x111 / me=hex / subme=7 / psy=1 / psy_rd=1.00:0.00 / mixed_ref=1 / me_range=16 / chroma_me=1 / trellis=1 / 8x8dct=0 / cqm=0 / deadzone=21,11 / fast_pskip=1 / chroma_qp_offset=-2 / threads=6 / lookahead_threads=1 / sliced_threads=0 / nr=0 / decimate=1 / interlaced=0 / bluray_compat=0 / constrained_intra=0 / bframes=0 / weightp=0 / keyint=240 / keyint_min=24 / scenecut=40 / intra_refresh=0 / rc_lookahead=40 / rc=2pass / mbtree=1 / bitrate=1536 / ratetol=1.0 / qcomp=0.60 / qpmin=0 / qpmax=69 / qpstep=4 / cplxblur=20.0 / qblur=0.5 / vbv_maxrate=10000 / vbv_bufsize=10000 / nal_hrd=vbr / ip_ratio=1.40 / aq=1:1.00
Дата кодирования : UTC 2013-10-22 00:12:23
Дата пометки : UTC 2013-10-22 03:05:28
Аудио #1
Идентификатор : 2
Формат : AAC
Формат/Информация : Advanced Audio Codec
Профиль формата : LC
Идентификатор кодека : 40
Продолжительность : 43 м.
Вид битрейта : Переменный
Битрейт : 192 Кбит/сек
Максимальный битрейт : 200 Кбит/сек
Каналы : 2 канала
Расположение каналов : Front: L R
Частота : 48,0 КГц
Метод сжатия : С потерями
Размер потока : 59,2 Мбайт (10%)
Язык : Russian
Дата кодирования : UTC 2013-10-22 02:28:17
Дата пометки : UTC 2013-10-22 03:05:28
Аудио #2
Идентификатор : 3
Формат : AAC
Формат/Информация : Advanced Audio Codec
Профиль формата : LC
Идентификатор кодека : 40
Продолжительность : 43 м.
Вид битрейта : Переменный
Битрейт : 192 Кбит/сек
Максимальный битрейт : 199 Кбит/сек
Каналы : 2 канала
Расположение каналов : Front: L R
Частота : 48,0 КГц
Метод сжатия : С потерями
Размер потока : 59,2 Мбайт (10%)
Язык : English
Дата кодирования : UTC 2013-10-22 02:51:52
Дата пометки : UTC 2013-10-22 03:05:28

5 серия

Общее
Полное имя : D:\UPLOADED\СЕРИАЛЫ\MENTALIST\Менталист Rip\Rip Менталист 6 сезон\Mentalist.s06e05.WEB-DLRip.x264.Rus.Eng.BaibaKo.tv.mp4
Формат : MPEG-4
Профиль формата : Base Media
Идентификатор кодека : isom
Размер файла : 571 Мбайт
Продолжительность : 41 м.
Режим общего битрейта : Переменный
Общий поток : 1923 Кбит/сек
Дата кодирования : UTC 2013-10-29 17:54:29
Дата пометки : UTC 2013-10-29 17:54:29
Видео
Идентификатор : 1
Формат : AVC
Формат/Информация : Advanced Video Codec
Профиль формата : [email protected]
Параметр CABAC формата : Нет
Параметр ReFrames формата : 3 кадра
Идентификатор кодека : avc1
Идентификатор кодека/Информация : Advanced Video Coding
Продолжительность : 41 м.
Вид битрейта : Переменный
Битрейт : 1536 Кбит/сек
Максимальный битрейт : 10000 Кбит/сек
Ширина : 720 пикселей
Высота : 400 пикселей
Соотношение сторон : 16:9
Режим частоты кадров : Постоянный
Частота кадров : 23,976 кадра/сек
Цветовое пространство : YUV
Субдискретизация насыщенности : 4:2:0
Битовая глубина : 8 бит
Тип развёртки : Прогрессивная
Бит/(Пиксели*Кадры) : 0.222
Размер потока : 456 Мбайт (80%)
Заголовок : The Mentalist S06E05 The Red Tattoo 720p WEB-DL DD5 1 H 264-ECI
Библиотека кодирования : x264 core 129 r2245 bc13772
Настройки программы : cabac=0 / ref=3 / deblock=1:0:0 / analyse=0x1:0x111 / me=hex / subme=7 / psy=1 / psy_rd=1.00:0.00 / mixed_ref=1 / me_range=16 / chroma_me=1 / trellis=1 / 8x8dct=0 / cqm=0 / deadzone=21,11 / fast_pskip=1 / chroma_qp_offset=-2 / threads=6 / lookahead_threads=1 / sliced_threads=0 / nr=0 / decimate=1 / interlaced=0 / bluray_compat=0 / constrained_intra=0 / bframes=0 / weightp=0 / keyint=240 / keyint_min=24 / scenecut=40 / intra_refresh=0 / rc_lookahead=40 / rc=2pass / mbtree=1 / bitrate=1536 / ratetol=1.0 / qcomp=0.60 / qpmin=0 / qpmax=69 / qpstep=4 / cplxblur=20.0 / qblur=0.5 / vbv_maxrate=10000 / vbv_bufsize=10000 / nal_hrd=vbr / ip_ratio=1.40 / aq=1:1.00
Дата кодирования : UTC 2013-10-29 02:25:33
Дата пометки : UTC 2013-10-29 17:59:17
Аудио #1
Идентификатор : 2
Формат : AAC
Формат/Информация : Advanced Audio Codec
Профиль формата : LC
Идентификатор кодека : 40
Продолжительность : 41 м.
Вид битрейта : Переменный
Битрейт : 192 Кбит/сек
Максимальный битрейт : 199 Кбит/сек
Каналы : 2 канала
Расположение каналов : Front: L R
Частота : 48,0 КГц
Метод сжатия : С потерями
Размер потока : 57,0 Мбайт (10%)
Язык : Russian
Дата кодирования : UTC 2013-10-29 17:41:12
Дата пометки : UTC 2013-10-29 17:59:17
Аудио #2
Идентификатор : 3
Формат : AAC
Формат/Информация : Advanced Audio Codec
Профиль формата : LC
Идентификатор кодека : 40
Продолжительность : 41 м.
Вид битрейта : Переменный
Битрейт : 192 Кбит/сек
Максимальный битрейт : 199 Кбит/сек
Каналы : 2 канала
Расположение каналов : Front: L R
Частота : 48,0 КГц
Метод сжатия : С потерями
Размер потока : 57,0 Мбайт (10%)
Язык : English
Дата кодирования : UTC 2013-10-29 17:48:22
Дата пометки : UTC 2013-10-29 17:59:17

6 серия

Общее
Полное имя : D:\UPLOADED\СЕРИАЛЫ\MENTALIST\Менталист Rip\Rip Менталист 6 сезон\Mentalist.s06e06.WEB-DLRip.x264.Rus.Eng.BaibaKo.tv.mp4
Формат : MPEG-4
Профиль формата : Base Media
Идентификатор кодека : isom
Размер файла : 593 Мбайт
Продолжительность : 43 м.
Режим общего битрейта : Переменный
Общий поток : 1924 Кбит/сек
Дата кодирования : UTC 2013-11-05 06:07:54
Дата пометки : UTC 2013-11-05 06:07:54
Видео
Идентификатор : 1
Формат : AVC
Формат/Информация : Advanced Video Codec
Профиль формата : [email protected]
Параметр CABAC формата : Нет
Параметр ReFrames формата : 3 кадра
Идентификатор кодека : avc1
Идентификатор кодека/Информация : Advanced Video Coding
Продолжительность : 43 м.
Вид битрейта : Переменный
Битрейт : 1536 Кбит/сек
Максимальный битрейт : 10000 Кбит/сек
Ширина : 720 пикселей
Высота : 400 пикселей
Соотношение сторон : 16:9
Режим частоты кадров : Постоянный
Частота кадров : 23,976 кадра/сек
Цветовое пространство : YUV
Субдискретизация насыщенности : 4:2:0
Битовая глубина : 8 бит
Тип развёртки : Прогрессивная
Бит/(Пиксели*Кадры) : 0.222
Размер потока : 474 Мбайт (80%)
Заголовок : Mentalist 06 Fire and Brimstone (HD)
Библиотека кодирования : x264 core 129 r2245 bc13772
Настройки программы : cabac=0 / ref=3 / deblock=1:0:0 / analyse=0x1:0x111 / me=hex / subme=7 / psy=1 / psy_rd=1.00:0.00 / mixed_ref=1 / me_range=16 / chroma_me=1 / trellis=1 / 8x8dct=0 / cqm=0 / deadzone=21,11 / fast_pskip=1 / chroma_qp_offset=-2 / threads=12 / lookahead_threads=2 / sliced_threads=0 / nr=0 / decimate=1 / interlaced=0 / bluray_compat=0 / constrained_intra=0 / bframes=0 / weightp=0 / keyint=240 / keyint_min=24 / scenecut=40 / intra_refresh=0 / rc_lookahead=40 / rc=2pass / mbtree=1 / bitrate=1536 / ratetol=1.0 / qcomp=0.60 / qpmin=0 / qpmax=69 / qpstep=4 / cplxblur=20.0 / qblur=0.5 / vbv_maxrate=10000 / vbv_bufsize=10000 / nal_hrd=vbr / ip_ratio=1.40 / aq=1:1.00
Дата кодирования : UTC 2013-11-04 19:15:25
Дата пометки : UTC 2013-11-05 06:08:46
Аудио #1
Идентификатор : 2
Формат : AAC
Формат/Информация : Advanced Audio Codec
Профиль формата : LC
Идентификатор кодека : 40
Продолжительность : 43 м.
Вид битрейта : Переменный
Битрейт : 192 Кбит/сек
Максимальный битрейт : 200 Кбит/сек
Каналы : 2 канала
Расположение каналов : Front: L R
Частота : 48,0 КГц
Метод сжатия : С потерями
Размер потока : 59,2 Мбайт (10%)
Язык : Russian
Дата кодирования : UTC 2013-11-05 05:06:21
Дата пометки : UTC 2013-11-05 06:08:46
Аудио #2
Идентификатор : 3
Формат : AAC
Формат/Информация : Advanced Audio Codec
Профиль формата : LC
Идентификатор кодека : 40
Продолжительность : 43 м.
Вид битрейта : Переменный
Битрейт : 192 Кбит/сек
Максимальный битрейт : 200 Кбит/сек
Каналы : 2 канала
Расположение каналов : Front: L R
Частота : 48,0 КГц
Метод сжатия : С потерями
Размер потока : 59,2 Мбайт (10%)
Язык : English
Дата кодирования : UTC 2013-11-05 05:58:02
Дата пометки : UTC 2013-11-05 06:08:46

7 серия

Общее
Полное имя : D:\UPLOADED\СЕРИАЛЫ\MENTALIST\Менталист Rip\Rip Менталист 6 сезон\Mentalist.s06e07.WEB-DLRip.x264.Rus.Eng.BaibaKo.tv.mp4
Формат : MPEG-4
Профиль формата : Base Media
Идентификатор кодека : isom
Размер файла : 562 Мбайт
Продолжительность : 40 м.
Режим общего битрейта : Переменный
Общий поток : 1923 Кбит/сек
Дата кодирования : UTC 2013-11-19 18:52:32
Дата пометки : UTC 2013-11-19 18:52:32
Видео
Идентификатор : 1
Формат : AVC
Формат/Информация : Advanced Video Codec
Профиль формата : [email protected]
Параметр CABAC формата : Нет
Параметр ReFrames формата : 3 кадра
Идентификатор кодека : avc1
Идентификатор кодека/Информация : Advanced Video Coding
Продолжительность : 40 м.
Вид битрейта : Переменный
Битрейт : 1536 Кбит/сек
Максимальный битрейт : 10000 Кбит/сек
Ширина : 720 пикселей
Высота : 400 пикселей
Соотношение сторон : 16:9
Режим частоты кадров : Постоянный
Частота кадров : 23,976 кадра/сек
Цветовое пространство : YUV
Субдискретизация насыщенности : 4:2:0
Битовая глубина : 8 бит
Тип развёртки : Прогрессивная
Бит/(Пиксели*Кадры) : 0.222
Размер потока : 448 Мбайт (80%)
Заголовок : The Mentalist S06E07 The Great Red Dragon 720p WEB-DL DD5 1 H 264-ECI
Библиотека кодирования : x264 core 129 r2245 bc13772
Настройки программы : cabac=0 / ref=3 / deblock=1:0:0 / analyse=0x1:0x111 / me=hex / subme=7 / psy=1 / psy_rd=1.00:0.00 / mixed_ref=1 / me_range=16 / chroma_me=1 / trellis=1 / 8x8dct=0 / cqm=0 / deadzone=21,11 / fast_pskip=1 / chroma_qp_offset=-2 / threads=6 / lookahead_threads=1 / sliced_threads=0 / nr=0 / decimate=1 / interlaced=0 / bluray_compat=0 / constrained_intra=0 / bframes=0 / weightp=0 / keyint=240 / keyint_min=24 / scenecut=40 / intra_refresh=0 / rc_lookahead=40 / rc=2pass / mbtree=1 / bitrate=1536 / ratetol=1.0 / qcomp=0.60 / qpmin=0 / qpmax=69 / qpstep=4 / cplxblur=20.0 / qblur=0.5 / vbv_maxrate=10000 / vbv_bufsize=10000 / nal_hrd=vbr / ip_ratio=1.40 / aq=1:1.00
Дата кодирования : UTC 2013-11-19 18:50:24
Дата пометки : UTC 2013-11-19 18:52:38
Аудио #1
Идентификатор : 2
Формат : AAC
Формат/Информация : Advanced Audio Codec
Профиль формата : LC
Идентификатор кодека : 40
Продолжительность : 40 м.
Вид битрейта : Переменный
Битрейт : 192 Кбит/сек
Максимальный битрейт : 200 Кбит/сек
Каналы : 2 канала
Расположение каналов : Front: L R
Частота : 48,0 КГц
Метод сжатия : С потерями
Размер потока : 56,1 Мбайт (10%)
Язык : Russian
Дата кодирования : UTC 2013-11-19 18:09:16
Дата пометки : UTC 2013-11-19 18:52:38
Аудио #2
Идентификатор : 3
Формат : AAC
Формат/Информация : Advanced Audio Codec
Профиль формата : LC
Идентификатор кодека : 40
Продолжительность : 40 м.
Вид битрейта : Переменный
Битрейт : 192 Кбит/сек
Максимальный битрейт : 199 Кбит/сек
Каналы : 2 канала
Расположение каналов : Front: L R
Частота : 48,0 КГц
Метод сжатия : С потерями
Размер потока : 56,1 Мбайт (10%)
Язык : English
Дата кодирования : UTC 2013-11-19 18:18:44
Дата пометки : UTC 2013-11-19 18:52:38

8 серия

Общее
Полное имя : D:\UPLOADED\СЕРИАЛЫ\MENTALIST\Менталист Rip\Rip Менталист 6 сезон\Mentalist.s06e08.WEB-DLRip.x264.Rus.Eng.BaibaKo.tv.mp4
Формат : MPEG-4
Профиль формата : Base Media
Идентификатор кодека : isom
Размер файла : 594 Мбайт
Продолжительность : 43 м.
Режим общего битрейта : Переменный
Общий поток : 1924 Кбит/сек
Дата кодирования : UTC 2013-11-26 15:46:39
Дата пометки : UTC 2013-11-26 15:46:39
Видео
Идентификатор : 1
Формат : AVC
Формат/Информация : Advanced Video Codec
Профиль формата : [email protected]
Параметр CABAC формата : Нет
Параметр ReFrames формата : 3 кадра
Идентификатор кодека : avc1
Идентификатор кодека/Информация : Advanced Video Coding
Продолжительность : 43 м.
Вид битрейта : Переменный
Битрейт : 1536 Кбит/сек
Максимальный битрейт : 10000 Кбит/сек
Ширина : 720 пикселей
Высота : 400 пикселей
Соотношение сторон : 16:9
Режим частоты кадров : Постоянный
Частота кадров : 23,976 кадра/сек
Цветовое пространство : YUV
Субдискретизация насыщенности : 4:2:0
Битовая глубина : 8 бит
Тип развёртки : Прогрессивная
Бит/(Пиксели*Кадры) : 0.222
Размер потока : 474 Мбайт (80%)
Библиотека кодирования : x264 core 129 r2245 bc13772
Настройки программы : cabac=0 / ref=3 / deblock=1:0:0 / analyse=0x1:0x111 / me=hex / subme=7 / psy=1 / psy_rd=1.00:0.00 / mixed_ref=1 / me_range=16 / chroma_me=1 / trellis=1 / 8x8dct=0 / cqm=0 / deadzone=21,11 / fast_pskip=1 / chroma_qp_offset=-2 / threads=6 / lookahead_threads=1 / sliced_threads=0 / nr=0 / decimate=1 / interlaced=0 / bluray_compat=0 / constrained_intra=0 / bframes=0 / weightp=0 / keyint=240 / keyint_min=24 / scenecut=40 / intra_refresh=0 / rc_lookahead=40 / rc=2pass / mbtree=1 / bitrate=1536 / ratetol=1.0 / qcomp=0.60 / qpmin=0 / qpmax=69 / qpstep=4 / cplxblur=20.0 / qblur=0.5 / vbv_maxrate=10000 / vbv_bufsize=10000 / nal_hrd=vbr / ip_ratio=1.40 / aq=1:1.00
Дата кодирования : UTC 2013-11-26 11:44:32
Дата пометки : UTC 2013-11-26 15:46:49
Аудио #1
Идентификатор : 2
Формат : AAC
Формат/Информация : Advanced Audio Codec
Профиль формата : LC
Идентификатор кодека : 40
Продолжительность : 43 м.
Вид битрейта : Переменный
Битрейт : 192 Кбит/сек
Максимальный битрейт : 200 Кбит/сек
Каналы : 2 канала
Расположение каналов : Front: L R
Частота : 48,0 КГц
Метод сжатия : С потерями
Размер потока : 59,2 Мбайт (10%)
Язык : Russian
Дата кодирования : UTC 2013-11-26 12:56:13
Дата пометки : UTC 2013-11-26 15:46:49
Аудио #2
Идентификатор : 3
Формат : AAC
Формат/Информация : Advanced Audio Codec
Профиль формата : LC
Идентификатор кодека : 40
Продолжительность : 43 м.
Вид битрейта : Переменный
Битрейт : 192 Кбит/сек
Максимальный битрейт : 200 Кбит/сек
Каналы : 2 канала
Расположение каналов : Front: L R
Частота : 48,0 КГц
Метод сжатия : С потерями
Размер потока : 59,2 Мбайт (10%)
Язык : English
Дата кодирования : UTC 2013-11-26 13:01:13
Дата пометки : UTC 2013-11-26 15:46:49

9 серия

Общее
Полное имя : D:\UPLOADED\СЕРИАЛЫ\MENTALIST\Менталист Rip\Rip Менталист 6 сезон\Mentalist.s06e09.WEB-DLRip.x264.Rus.Eng.BaibaKo.tv.mp4
Формат : MPEG-4
Профиль формата : Base Media
Идентификатор кодека : isom
Размер файла : 595 Мбайт
Продолжительность : 43 м.
Режим общего битрейта : Переменный
Общий поток : 1923 Кбит/сек
Дата кодирования : UTC 2013-12-03 23:11:05
Дата пометки : UTC 2013-12-03 23:11:05
Видео
Идентификатор : 1
Формат : AVC
Формат/Информация : Advanced Video Codec
Профиль формата : [email protected]
Параметр CABAC формата : Нет
Параметр ReFrames формата : 3 кадра
Идентификатор кодека : avc1
Идентификатор кодека/Информация : Advanced Video Coding
Продолжительность : 43 м.
Вид битрейта : Переменный
Битрейт : 1536 Кбит/сек
Максимальный битрейт : 10000 Кбит/сек
Ширина : 720 пикселей
Высота : 400 пикселей
Соотношение сторон : 16:9
Режим частоты кадров : Постоянный
Частота кадров : 23,976 кадра/сек
Цветовое пространство : YUV
Субдискретизация насыщенности : 4:2:0
Битовая глубина : 8 бит
Тип развёртки : Прогрессивная
Бит/(Пиксели*Кадры) : 0.222
Размер потока : 474 Мбайт (80%)
Библиотека кодирования : x264 core 129 r2245 bc13772
Настройки программы : cabac=0 / ref=3 / deblock=1:0:0 / analyse=0x1:0x111 / me=hex / subme=7 / psy=1 / psy_rd=1.00:0.00 / mixed_ref=1 / me_range=16 / chroma_me=1 / trellis=1 / 8x8dct=0 / cqm=0 / deadzone=21,11 / fast_pskip=1 / chroma_qp_offset=-2 / threads=6 / lookahead_threads=1 / sliced_threads=0 / nr=0 / decimate=1 / interlaced=0 / bluray_compat=0 / constrained_intra=0 / bframes=0 / weightp=0 / keyint=240 / keyint_min=24 / scenecut=40 / intra_refresh=0 / rc_lookahead=40 / rc=2pass / mbtree=1 / bitrate=1536 / ratetol=1.0 / qcomp=0.60 / qpmin=0 / qpmax=69 / qpstep=4 / cplxblur=20.0 / qblur=0.5 / vbv_maxrate=10000 / vbv_bufsize=10000 / nal_hrd=vbr / ip_ratio=1.40 / aq=1:1.00
Дата кодирования : UTC 2013-12-03 14:06:12
Дата пометки : UTC 2013-12-03 23:11:16
Аудио #1
Идентификатор : 2
Формат : AAC
Формат/Информация : Advanced Audio Codec
Профиль формата : LC
Идентификатор кодека : 40
Продолжительность : 43 м.
Вид битрейта : Переменный
Битрейт : 192 Кбит/сек
Максимальный битрейт : 199 Кбит/сек
Каналы : 2 канала
Расположение каналов : Front: L R
Частота : 48,0 КГц
Метод сжатия : С потерями
Размер потока : 59,4 Мбайт (10%)
Язык : Russian
Дата кодирования : UTC 2013-12-03 22:58:38
Дата пометки : UTC 2013-12-03 23:11:16
Аудио #2
Идентификатор : 3
Формат : AAC
Формат/Информация : Advanced Audio Codec
Профиль формата : LC
Идентификатор кодека : 40
Продолжительность : 43 м.
Вид битрейта : Переменный
Битрейт : 192 Кбит/сек
Максимальный битрейт : 198 Кбит/сек
Каналы : 2 канала
Расположение каналов : Front: L R
Частота : 48,0 КГц
Метод сжатия : С потерями
Размер потока : 59,4 Мбайт (10%)
Язык : English
Дата кодирования : UTC 2013-12-03 23:04:20
Дата пометки : UTC 2013-12-03 23:11:16

10 серия

Общее
Полное имя : D:\UPLOADED\СЕРИАЛЫ\MENTALIST\Менталист Rip\Rip Менталист 6 сезон\Mentalist.s06e10.WEB-DLRip.x264.Rus.Eng.BaibaKo.tv.mp4
Формат : MPEG-4
Профиль формата : Base Media
Идентификатор кодека : isom
Размер файла : 593 Мбайт
Продолжительность : 43 м.
Режим общего битрейта : Переменный
Общий поток : 1924 Кбит/сек
Дата кодирования : UTC 2013-12-11 04:38:12
Дата пометки : UTC 2013-12-11 04:38:12
Видео
Идентификатор : 1
Формат : AVC
Формат/Информация : Advanced Video Codec
Профиль формата : [email protected]
Параметр CABAC формата : Нет
Параметр ReFrames формата : 3 кадра
Идентификатор кодека : avc1
Идентификатор кодека/Информация : Advanced Video Coding
Продолжительность : 43 м.
Вид битрейта : Переменный
Битрейт : 1536 Кбит/сек
Максимальный битрейт : 10000 Кбит/сек
Ширина : 720 пикселей
Высота : 400 пикселей
Соотношение сторон : 16:9
Режим частоты кадров : Постоянный
Частота кадров : 23,976 кадра/сек
Цветовое пространство : YUV
Субдискретизация насыщенности : 4:2:0
Битовая глубина : 8 бит
Тип развёртки : Прогрессивная
Бит/(Пиксели*Кадры) : 0.222
Размер потока : 473 Мбайт (80%)
Библиотека кодирования : x264 core 129 r2245 bc13772
Настройки программы : cabac=0 / ref=3 / deblock=1:0:0 / analyse=0x1:0x111 / me=hex / subme=7 / psy=1 / psy_rd=1.00:0.00 / mixed_ref=1 / me_range=16 / chroma_me=1 / trellis=1 / 8x8dct=0 / cqm=0 / deadzone=21,11 / fast_pskip=1 / chroma_qp_offset=-2 / threads=6 / lookahead_threads=1 / sliced_threads=0 / nr=0 / decimate=1 / interlaced=0 / bluray_compat=0 / constrained_intra=0 / bframes=0 / weightp=0 / keyint=240 / keyint_min=24 / scenecut=40 / intra_refresh=0 / rc_lookahead=40 / rc=2pass / mbtree=1 / bitrate=1536 / ratetol=1.0 / qcomp=0.60 / qpmin=0 / qpmax=69 / qpstep=4 / cplxblur=20.0 / qblur=0.5 / vbv_maxrate=10000 / vbv_bufsize=10000 / nal_hrd=vbr / ip_ratio=1.40 / aq=1:1.00
Дата кодирования : UTC 2013-12-11 04:34:06
Дата пометки : UTC 2013-12-11 04:38:19
Аудио #1
Идентификатор : 2
Формат : AAC
Формат/Информация : Advanced Audio Codec
Профиль формата : LC
Идентификатор кодека : 40
Продолжительность : 43 м.
Вид битрейта : Переменный
Битрейт : 192 Кбит/сек
Максимальный битрейт : 198 Кбит/сек
Каналы : 2 канала
Расположение каналов : Front: L R
Частота : 48,0 КГц
Метод сжатия : С потерями
Размер потока : 59,2 Мбайт (10%)
Язык : Russian
Дата кодирования : UTC 2013-12-11 04:09:54
Дата пометки : UTC 2013-12-11 04:38:19
Аудио #2
Идентификатор : 3
Формат : AAC
Формат/Информация : Advanced Audio Codec
Профиль формата : LC
Идентификатор кодека : 40
Продолжительность : 43 м.
Вид битрейта : Переменный
Битрейт : 192 Кбит/сек
Максимальный битрейт : 197 Кбит/сек
Каналы : 2 канала
Расположение каналов : Front: L R
Частота : 48,0 КГц
Метод сжатия : С потерями
Размер потока : 59,2 Мбайт (10%)
Язык : English
Дата кодирования : UTC 2013-12-11 04:16:01
Дата пометки : UTC 2013-12-11 04:38:19

11 серия

Общее
Полное имя : D:\UPLOADED\СЕРИАЛЫ\MENTALIST\Менталист Rip\Rip Менталист 6 сезон\Mentalist.s06e11.WEB-DLRip.x264.Rus.Eng.BaibaKo.tv.mp4
Формат : MPEG-4
Профиль формата : Base Media
Идентификатор кодека : isom
Размер файла : 589 Мбайт
Продолжительность : 42 м.
Режим общего битрейта : Переменный
Общий поток : 1919 Кбит/сек
Дата кодирования : UTC 2014-01-08 02:12:38
Дата пометки : UTC 2014-01-08 02:12:38
Видео
Идентификатор : 1
Формат : AVC
Формат/Информация : Advanced Video Codec
Профиль формата : [email protected]
Параметр CABAC формата : Нет
Параметр ReFrames формата : 3 кадра
Идентификатор кодека : avc1
Идентификатор кодека/Информация : Advanced Video Coding
Продолжительность : 42 м.
Вид битрейта : Переменный
Битрейт : 1536 Кбит/сек
Максимальный битрейт : 10000 Кбит/сек
Ширина : 720 пикселей
Высота : 400 пикселей
Соотношение сторон : 16:9
Режим частоты кадров : Постоянный
Частота кадров : 23,976 кадра/сек
Цветовое пространство : YUV
Субдискретизация насыщенности : 4:2:0
Битовая глубина : 8 бит
Тип развёртки : Прогрессивная
Бит/(Пиксели*Кадры) : 0.222
Размер потока : 472 Мбайт (80%)
Библиотека кодирования : x264 core 135 r2345 f0c1c53
Настройки программы : cabac=0 / ref=3 / deblock=1:0:0 / analyse=0x1:0x111 / me=hex / subme=7 / psy=1 / psy_rd=1.00:0.00 / mixed_ref=1 / me_range=16 / chroma_me=1 / trellis=1 / 8x8dct=0 / cqm=0 / deadzone=21,11 / fast_pskip=1 / chroma_qp_offset=-2 / threads=12 / lookahead_threads=2 / sliced_threads=0 / nr=0 / decimate=1 / interlaced=0 / bluray_compat=0 / constrained_intra=0 / bframes=0 / weightp=0 / keyint=240 / keyint_min=24 / scenecut=40 / intra_refresh=0 / rc_lookahead=40 / rc=2pass / mbtree=1 / bitrate=1536 / ratetol=1.0 / qcomp=0.60 / qpmin=0 / qpmax=69 / qpstep=4 / cplxblur=20.0 / qblur=0.5 / vbv_maxrate=10000 / vbv_bufsize=10000 / nal_hrd=vbr / ip_ratio=1.40 / aq=1:1.00
Дата кодирования : UTC 2014-01-07 15:17:08
Дата пометки : UTC 2014-01-08 02:12:52
Аудио #1
Идентификатор : 2
Формат : AAC
Формат/Информация : Advanced Audio Codec
Профиль формата : LC
Идентификатор кодека : 67
Продолжительность : 42 м.
Вид битрейта : Переменный
Битрейт : 192 Кбит/сек
Максимальный битрейт : 195 Кбит/сек
Каналы : 2 канала
Расположение каналов : Front: L R
Частота : 48,0 КГц
Метод сжатия : С потерями
Размер потока : 58,2 Мбайт (10%)
Язык : Russian
Дата кодирования : UTC 2014-01-08 02:12:42
Дата пометки : UTC 2014-01-08 02:12:52
Аудио #2
Идентификатор : 3
Формат : AAC
Формат/Информация : Advanced Audio Codec
Профиль формата : LC
Идентификатор кодека : 67
Продолжительность : 42 м.
Вид битрейта : Переменный
Битрейт : 192 Кбит/сек
Максимальный битрейт : 196 Кбит/сек
Каналы : 2 канала
Расположение каналов : Front: L R
Частота : 48,0 КГц
Метод сжатия : С потерями
Размер потока : 58,2 Мбайт (10%)
Язык : English
Дата кодирования : UTC 2014-01-08 02:12:48
Дата пометки : UTC 2014-01-08 02:12:52

Список всех серий 6-го сезона


01. Роза пустыни (The Desert Rose)
02. Чернокрылая красная птица (Black-Winged Redbird)
03. Свадьба в красном (Wedding in Red)
04. Кровавый список (Red-Listed)
05. Красная татуировка (The Red Tattoo)
06. Огонь и сера (Fire and Brimstone)
07. Великий красный дракон (The Great Red Dragon)
08. Красный Джон (Red John)
09. Под голубыми небесами (My Blue Heaven)
10. Зелёный палец (Green Thumb)
11. Белые линии (White Lines)

Внимание! Раздача ведётся путём добавления новых серий

Внимание! Раздача ведётся путём добавления новых серий; при каждом добавлении создаётся новый торрент.
Чтобы начать докачку новой серии, пользователям необходимо сделать следующее:
1. Остановить скачивание;
2. Удалить старый торрент у себя из клиента (старые серии удалять не надо);
3. Скачать новый торрент и запустить его у себя в клиенте вместо старого, при этом указать клиенту путь в старую папку куда и должно происходить скачивание новых серий. Ваш клиент при этом должен произвести хеширование (проверку) старой папки и будет докачивать только те серии, которых у вас ещё нет. Старые серии при этом не удаляются, а продолжают раздаваться! Eсли вы уже удалили старые серии, то предотвратить повторную закачку старых серий можно, отжав галочку в соответствующих местах при запуске нового торрента.
-Релиз группа:
Озвучка: Елена Григорьева, Татьяна Оболевич, Алексей Кузнецов, Виталий Ткаченко и Александр Фурман
Автор перевода: Lub_a-08.01.14 ДОБАВЛЕНА 11 СЕРИЯ. ПРИЯТНОГО ПРОСМОТРА!!!-Продолжительность: ~00:43:00 серия
Качество видео: WEB-DLRip
Формат: Mp4
Видеокодек: H.264
Битрейт видео: ~1500 Кбит/сек
Размер кадра: 720x400 (16:9), 23,976 fps, AVC, ~ 1500 Kbps avg
Аудиокодек: AAC
Битрейт аудио:
аудио rus: AAC at 192 Kbps 2 channels, 48.0 KHz, Профессиональный многоголосый Baibako
аудио eng: AAC at 192 Kbps 2 channels, 48.0 KHz, оригинальная дорожка-Скриншоты:

[Цитировать]



Показать сообщения:    

Текущее время: 05-Дек 11:33

Часовой пояс: UTC + 3


Вы не можете начинать темы
Вы не можете отвечать на сообщения
Вы не можете редактировать свои сообщения
Вы не можете удалять свои сообщения
Вы не можете голосовать в опросах
Вы не можете прикреплять файлы к сообщениям
Вы не можете скачивать файлы

!ВНИМАНИЕ!
Сайт не предоставляет электронные версии произведений, а занимается лишь коллекционированием и каталогизацией ссылок, присылаемых и публикуемых на форуме нашими читателями. Если вы являетесь правообладателем какого-либо представленного материала и не желаете, чтобы ссылка на него находилась в нашем каталоге, свяжитесь с нами, и мы незамедлительно удалим ее. Файлы для обмена на трекере предоставлены пользователями сайта, и администрация не несет ответственности за их содержание. Просьба не заливать файлы, защищенные авторскими правами, а также файлы нелегального содержания!