[ Сегодня идет свободное скачивание без начисления Download ]


Статистика раздачи
Нет
 
   
 
Top  
 
 
-Опасная иллюзия / The Necessary Death of Charlie Countryman (2013) BDRip- Год выпуска: 2013
Производство: Румыния, США | MediaPro Pictures, Media Pro, Bona Fide Productions
Жанр: Боевик, Триллер, Драма, Мелодрама, Комедия
Перевод: Двуголосый закадровый, любительский
Озвучка / Автор перевода: (Студия "Paradox")
Субтитры: Вшитые отключаемые
Язык субтитров: Английский (Full, SDH)-Дата мировой премьеры: 21 января 2013 (США, Кинофестиваль «Сандэнс»)
Дата российской премьеры: 27 февраля 2014, «Экспонента»-Режиссер: Фредрик Бонд-Продюсер: Альберт Бергер, Крэйг Дж. Флорес, Уильям Хорберг-Актеры: Шайа ЛаБаф, Эван Рэйчел Вуд, Мадс Миккельсен, Тиль Швайгер, Руперт Гринт, Джеймс Бакли, Ион Карамитру, Винсент Д’Онофрио, Мелисса Лео, Джон Хёрт, Андрей Финти, Ванесса Кирби, Габриэль Спайю, Богдан Фаркас ...-Описание фильма:
• Избитый и израненный Чарли Кантримен подвешен вниз головой в центре Бухареста. Еще секунда — и в его сердце вонзится пуля, и жизнь молодого американского туриста оборвется.
• А ведь еще пару недель назад ничто не предвещало такого финала. Работа Чарли была скучной, но безопасной, а в личной жизни его лучшими друзьями были галлюциногенные вещества. И вдруг грянул гром — в наркотическом видении ему явилась покойная мама…-
Продолжительность: 01:43:36
Качество видео: BDRip 1080p [ROVERS]
Видеокодек: MPEG-4 AVC/H.264
Битрейт видео: ~ 8418 Кбит/сек
Размер кадра: 1920 x 1080 (1.778) at 23.976 fps
Аудио #1: AC3 384 Кбит/сек (6ch), 48,0 КГц, 16 бит [Русский, DVO]
Аудио #2: AC3 640 Кбит/сек (6ch), 48,0 КГц, 16 бит [Английский]
Дополнительно: Сохранены оригинальные чаптеры как на Blu-ray

Трейлер / Ролик

[youtube]http://www.youtube.com/v/ldQzbqJ6OLY&fs=1[/youtube]

Награды

Знаете ли вы, что...

• Когда Чарли Кантримен (Шайа ЛаБаф) едет в мотель «Марко Поло», водитель такси в шутку называет его Робертом Редфордом. Намного позже, в эпизоде в предрассветном Бухаресте — после неприятностей в ночном клубе, герой Руперта Гринта спрашивает Чарли не попал ли он в ситуацию, похожую на события фильма «Три дня Кондора» (1975). Дело в том, что именно Роберт Редфорд исполнил главную роль в этом фильме. Более того, до «Влюбиться до смерти» Шайа ЛаБаф снялся в триллере «Грязные игры» (2012), где в качестве режиссера и главного героя выступил тот же самый Роберт Редфорд.

MediaInfo:

Уникальный идентификатор                 : 198869376004407405315471526538756651291 (0x959CD93F9BF419D0B7BA3A1A46EE791B)
Полное имя                               : H:\Opasnaya.illyuziya.2013.L2.BDRip.1080p.NNM-CLUB.mkv
Формат                                   : Matroska
Версия формата                           : Version 2
Размер файла                             : 6,83 Гбайт
Продолжительность                        : 1 ч. 43 м.
Общий поток                              : 9438 Кбит/сек
Название фильма                          : Opasnaya.illyuziya.2013.L2.BDRip.1080p.NNM-CLUB
Дата кодирования                         : UTC 2014-01-07 22:23:02
Программа кодирования                    : mkvmerge v2.9.9 ('Tutu') built on Nov 25 2009 21:13:32
Библиотека кодирования                   : libebml v0.7.9 + libmatroska v0.8.1
Видео
Идентификатор                            : 1
Формат                                   : AVC
Формат/Информация                        : Advanced Video Codec
Профиль формата                          : [url=mailto:High@L4.0]High@L4.0[/url]
Параметр CABAC формата                   : Да
Параметр ReFrames формата                : 4 кадра
Идентификатор кодека                     : V_MPEG4/ISO/AVC
Продолжительность                        : 1 ч. 43 м.
Битрейт                                  : 8418 Кбит/сек
Ширина                                   : 1920 пикселей
Высота                                   : 1080 пикселей
Соотношение сторон                       : 16:9
Режим частоты кадров                     : Постоянный
Частота кадров                           : 23,976 кадра/сек
Цветовое пространство                    : YUV
Субдискретизация насыщенности            : 4:2:0
Битовая глубина                          : 8 бит
Тип развёртки                            : Прогрессивная
Бит/(Пиксели*Кадры)                      : 0.169
Размер потока                            : 5,95 Гбайт (87%)
Заголовок                                : -=Release for NNM-CLUB.RU=-
Библиотека кодирования                   : x264 core 140 r2377 1ca7bb9
Настройки программы                      : cabac=1 / ref=4 / deblock=1:0:0 / analyse=0x3:0x133 / me=umh / subme=7 / psy=1 / psy_rd=1.00:0.00 / mixed_ref=1 / me_range=16 / chroma_me=1 / trellis=1 / 8x8dct=1 / cqm=0 / deadzone=21,11 / fast_pskip=0 / chroma_qp_offset=-2 / threads=18 / lookahead_threads=3 / sliced_threads=0 / nr=0 / decimate=1 / interlaced=0 / bluray_compat=0 / constrained_intra=0 / bframes=3 / b_pyramid=2 / b_adapt=2 / b_bias=0 / direct=3 / weightb=1 / open_gop=0 / weightp=2 / keyint=250 / keyint_min=23 / scenecut=40 / intra_refresh=0 / rc_lookahead=50 / rc=2pass / mbtree=1 / bitrate=8418 / ratetol=1.0 / qcomp=0.60 / qpmin=0 / qpmax=69 / qpstep=4 / cplxblur=20.0 / qblur=0.5 / ip_ratio=1.40 / aq=1:1.00
Язык                                     : English
Default                                  : Нет
Forced                                   : Нет
Аудио #1
Идентификатор                            : 2
Формат                                   : AC-3
Формат/Информация                        : Audio Coding 3
Расширение режима                        : CM (complete main)
Параметр Endianness формата              : Big
Идентификатор кодека                     : A_AC3
Продолжительность                        : 1 ч. 43 м.
Вид битрейта                             : Постоянный
Битрейт                                  : 384 Кбит/сек
Каналы                                   : 6 каналов
Расположение каналов                     : Front: L C R, Side: L R, LFE
Частота                                  : 48,0 КГц
Битовая глубина                          : 16 бит
Метод сжатия                             : С потерями
Размер потока                            : 285 Мбайт (4%)
Заголовок                                : AC3.384.Kbps (6ch) Russian (DVO Студия Paradox)
Язык                                     : Russian
Default                                  : Нет
Forced                                   : Нет
Аудио #2
Идентификатор                            : 3
Формат                                   : AC-3
Формат/Информация                        : Audio Coding 3
Расширение режима                        : CM (complete main)
Параметр Endianness формата              : Big
Идентификатор кодека                     : A_AC3
Продолжительность                        : 1 ч. 43 м.
Вид битрейта                             : Постоянный
Битрейт                                  : 640 Кбит/сек
Каналы                                   : 6 каналов
Расположение каналов                     : Front: L C R, Side: L R, LFE
Частота                                  : 48,0 КГц
Битовая глубина                          : 16 бит
Метод сжатия                             : С потерями
Размер потока                            : 474 Мбайт (7%)
Заголовок                                : AC3.640.Kbps (6ch) English
Язык                                     : English
Default                                  : Нет
Forced                                   : Нет
Текст #1
Идентификатор                            : 4
Формат                                   : UTF-8
Идентификатор кодека                     : S_TEXT/UTF8
Идентификатор кодека/Информация          : UTF-8 Plain Text
Заголовок                                : English (Full)
Язык                                     : English
Default                                  : Нет
Forced                                   : Нет
Текст #2
Идентификатор                            : 5
Формат                                   : UTF-8
Идентификатор кодека                     : S_TEXT/UTF8
Идентификатор кодека/Информация          : UTF-8 Plain Text
Заголовок                                : English (SDH)
Язык                                     : English
Default                                  : Нет
Forced                                   : Нет
Меню
00:00:00.000                             : en:00:00:00.000
00:10:10.026                             : en:00:10:10.026
00:17:18.537                             : en:00:17:18.537
00:29:32.229                             : en:00:29:32.229
00:37:04.848                             : en:00:37:04.848
00:44:12.650                             : en:00:44:12.650
00:55:12.518                             : en:00:55:12.518
01:02:22.197                             : en:01:02:22.197
01:09:19.947                             : en:01:09:19.947
01:17:12.211                             : en:01:17:12.211
01:28:30.639                             : en:01:28:30.639
01:39:34.010                             : en:01:39:34.010
Скриншоты:




[Цитировать]



Показать сообщения:    

Текущее время: 02-Дек 22:48

Часовой пояс: UTC + 3


Вы не можете начинать темы
Вы не можете отвечать на сообщения
Вы не можете редактировать свои сообщения
Вы не можете удалять свои сообщения
Вы не можете голосовать в опросах
Вы не можете прикреплять файлы к сообщениям
Вы не можете скачивать файлы

!ВНИМАНИЕ!
Сайт не предоставляет электронные версии произведений, а занимается лишь коллекционированием и каталогизацией ссылок, присылаемых и публикуемых на форуме нашими читателями. Если вы являетесь правообладателем какого-либо представленного материала и не желаете, чтобы ссылка на него находилась в нашем каталоге, свяжитесь с нами, и мы незамедлительно удалим ее. Файлы для обмена на трекере предоставлены пользователями сайта, и администрация не несет ответственности за их содержание. Просьба не заливать файлы, защищенные авторскими правами, а также файлы нелегального содержания!