[ Сегодня идет свободное скачивание без начисления Download ]


Статистика раздачи
Нет
 
   
 
Top  
 
 
-Хочу замуж (2014) SATRip- Год выпуска: 2014
Производство: Россия
Жанр: Комедия, Мелодрама
Перевод: Не требуется (Русский)
Субтитры: Отсутствуют
Режиссер: Глеб Якубовский
Актеры: Юлия Кадушкевич, Павел Южаков-Харланчук, Марина Денисова, Татьяна Лютаева, Андрей Фролов
Описание фильма:
Всего три недели есть у Вари, чтобы выйти замуж. Не просто выйти, а сначала найти, за кого. Почему же так мало времени? Из-за того, что так сошлись звезды. Именно так считает гадалка, к которой отправляется Варя по настоянию своей подруги Гали. Гадалка так подробно описывает будущего мужа Вари, что отыскать его теперь не должно составить труда. Только Галя почему-то недовольна описанием, которое дала гадалка. Может, потому, что Галя уже решила, кто должен стать избранником Вари?
Продолжительность: 01:29:29
Качество видео: SATRip
Видеокодек: DivX 5
Битрейт видео: ~950 Kbit/s
Размер кадра: 720 x 400
Аудиокодек: MP3, 2.0
Битрейт аудио: 128 Kbit/s

MediaInfo

Общее
Полное имя : D:\Торренты\Хочу замуж.2014.SATRip.avi
Формат : AVI
Формат/Информация : Audio Video Interleave
Размер файла : 703 Мбайт
Продолжительность : 1 ч. 29 м.
Общий поток : 1097 Кбит/сек
Видео
Идентификатор : 0
Формат : MPEG-4 Visual
Параметр BVOP формата : Да
Параметр QPel формата : Нет
Параметр GMC формата : Без точки перехода
Параметр матрицы формата : Default (H.263)
Идентификатор кодека : DX50
Идентификатор кодека/Подсказка : DivX 5
Продолжительность : 1 ч. 29 м.
Битрейт : 950 Кбит/сек
Ширина : 720 пикс.
Высота : 400 пикс.
Соотношение сторон : 16:9
Частота кадров : 25,000 кадр/сек
Цветовое пространство : YUV
Подвыборка цветности : 4:2:0
Битовая глубина : 8 бит
Тип развёртки : Прогрессивная
Метод сжатия : С потерями
Бит/(Пиксели*Кадры) : 0.008
Размер потока : 37,3 Мбайт (5%)
Библиотека кодирования : Intel(R) MPEG-4 encoder based on Intel(R) IPP 6.1 build 137.20[6.1.137.763]
Аудио
Идентификатор : 1
Формат : MPEG Audio
Идентификатор кодека : 55
Идентификатор кодека/Подсказка : MP3
Продолжительность : 1 ч. 29 м.
Битрейт : 128 Кбит/сек
Каналы : 2 канала
Частота : 48,0 КГц
Метод сжатия : С потерями
Размер потока : 3,73 Мбайт (1%)
Выравнивание : Соединение по промежуткам
Продолжительность промежутка : 85 мс. (2,13 видеокадра)
Скриншоты:

[Цитировать]

Топик был перенесен из форума Новинки кинопроката в форум Комедия
Henkok



Показать сообщения:    

Текущее время: 05-Дек 21:43

Часовой пояс: UTC + 3


Вы не можете начинать темы
Вы не можете отвечать на сообщения
Вы не можете редактировать свои сообщения
Вы не можете удалять свои сообщения
Вы не можете голосовать в опросах
Вы не можете прикреплять файлы к сообщениям
Вы не можете скачивать файлы

!ВНИМАНИЕ!
Сайт не предоставляет электронные версии произведений, а занимается лишь коллекционированием и каталогизацией ссылок, присылаемых и публикуемых на форуме нашими читателями. Если вы являетесь правообладателем какого-либо представленного материала и не желаете, чтобы ссылка на него находилась в нашем каталоге, свяжитесь с нами, и мы незамедлительно удалим ее. Файлы для обмена на трекере предоставлены пользователями сайта, и администрация не несет ответственности за их содержание. Просьба не заливать файлы, защищенные авторскими правами, а также файлы нелегального содержания!