[ Сегодня идет свободное скачивание без начисления Download ]


Статистика раздачи
Нет
 
   
 
Top  
 
 
-Хочу замуж (2014) SATRip [2 серии из 2]- Год выпуска: 2014
Жанр: Комедия, Мелодрама

Режиссер: Глеб Якубовский
Актеры: Юлия Кадушкевич, Павел Южаков-Харланчук, Марина Денисова, Татьяна Лютаева, Андрей Фролов (II)
Описание фильма:
Представляем вашему вниманию новую драматическую историю с нетривиальным названием «Хочу замуж». Согласитесь, одно только название обязывает фильм быть очень веселым, добрым и романтичным. Всё началось с того, что подруга Галя сагитировала главную героиню пойти к знакомой гадалке, чтобы та ей, наконец-то, суженого нагадала. И та действительно нагадала, правда с одним “но”. Чтобы прожить долгую и счастливую семейную жизнь, Варе со своим суженым необходимо ступить под венец не позже, чем через три недели.
Легко сказать, да вот только как успеть и суженого найти, и в себя влюбить, да ещё и под венец затащить? Не пропустите возможность скачать фильм «Хочу замуж» в хорошем качестве, чтобы узнать, как наша героиня справится со столь непростым заданием. Озадачивает и то, насколько точно гадалка описала “суженого”, уж очень похоже, что речь идёт о ком-то конкретном, ком-то, кого для любимой подруги подобрала заботливая Галя. Впрочем, сама Галя утверждает, что ничего такого вовсе и не замышляла и к описанию суженого не имеет отношения.
В таком случае дело совсем уж керосином запахло, ведь по описанию жених Варе совсем и не понравился. Как же быть? Быть может, в жизни он окажется немного лучше? Что ж, поживём – увидим. Не исключено, что это только описание нашей героине не понравилось, а познакомившись с тем парнем, она поймёт, что именно он – её настоящая судьба? А может, Варе всё же предстоит пойти наперекор судьбе и встретить того, кого она действительно сумеет полюбить всем сердцем? Время покажет. А в активе у нашей героини три недели и искреннее желание встретить суженого…
Продолжительность: 01:29:29
Качество видео: SATRip

Видеокодек: DivX 5
Битрейт видео: ~2051 kb/s
Размер кадра: 720x400
Аудиокодек: MP3 (2ch)
Битрейт аудио: 128 kb/s

Mediainfo

Общее
Полное имя : H:\xochy zamych\Hochu.hamuzh.2013.SATRip.avi
Формат : AVI
Формат/Информация : Audio Video Interleave
Размер файла : 1,37 Гбайт
Продолжительность : 1 ч. 29 м.
Общий поток : 2188 Кбит/сек
Библиотека кодирования : VirtualDub build 32842/release
Видео
Идентификатор : 0
Формат : MPEG-4 Visual
Параметр BVOP формата : 1
Параметр QPel формата : Нет
Параметр GMC формата : Без точки перехода
Параметр матрицы формата : Default (H.263)
Режим смешивания : Сжатый битовый поток
Идентификатор кодека : DX50
Идентификатор кодека/Подсказка : DivX 5
Продолжительность : 1 ч. 29 м.
Битрейт : 2051 Кбит/сек
Ширина : 720 пикселей
Высота : 400 пикселей
Соотношение сторон : 16:9
Частота кадров : 25,000 кадров/сек
Цветовое пространство : YUV
Субдискретизация насыщенности : 4:2:0
Битовая глубина : 8 бит
Тип развёртки : Прогрессивная
Метод сжатия : С потерями
Бит/(Пиксели*Кадры) : 0.285
Размер потока : 1,28 Гбайт (94%)
Библиотека кодирования : DivX 6.8.5 (UTC 2009-08-20)
Аудио
Идентификатор : 1
Формат : MPEG Audio
Версия формата : Version 1
Профиль формата : Layer 3
Режим : Joint stereo
Расширение режима : MS Stereo
Идентификатор кодека : 55
Идентификатор кодека/Подсказка : MP3
Продолжительность : 1 ч. 29 м.
Вид битрейта : Постоянный
Битрейт : 128 Кбит/сек
Каналы : 2 канала
Частота : 48,0 КГц
Метод сжатия : С потерями
Размер потока : 81,9 Мбайт (6%)
Выравнивание : Разделение по промежуткам
Продолжительность промежутка : 40 мс. (1,00 видеокадр)
Время предзагрузки промежутка : 500 мс.
Скриншоты:

[Цитировать]

Спасибо, посмотреть не успела, но качество фильма отменное.

[Цитировать]

Топик был перенесен из форума Новинки кинопроката в форум Комедия
Henkok



Показать сообщения:    

Текущее время: 05-Дек 11:32

Часовой пояс: UTC + 3


Вы не можете начинать темы
Вы не можете отвечать на сообщения
Вы не можете редактировать свои сообщения
Вы не можете удалять свои сообщения
Вы не можете голосовать в опросах
Вы не можете прикреплять файлы к сообщениям
Вы не можете скачивать файлы

!ВНИМАНИЕ!
Сайт не предоставляет электронные версии произведений, а занимается лишь коллекционированием и каталогизацией ссылок, присылаемых и публикуемых на форуме нашими читателями. Если вы являетесь правообладателем какого-либо представленного материала и не желаете, чтобы ссылка на него находилась в нашем каталоге, свяжитесь с нами, и мы незамедлительно удалим ее. Файлы для обмена на трекере предоставлены пользователями сайта, и администрация не несет ответственности за их содержание. Просьба не заливать файлы, защищенные авторскими правами, а также файлы нелегального содержания!