[ Сегодня идет свободное скачивание без начисления Download ]


Статистика раздачи
Нет
 
   
 
Top  
 
 
Покахонтас / Pocahontas -Страна: США
Жанр: Мультипликация, мюзикл
Продолжительность: 01:21:09
Год выпуска: 1995
Перевод: Профессиональный (дублированный)
Перевод: Авторский (одноголосый закадровый)
Перевод: Профессиональный (многоголосый закадровый)
Русские субтитры: есть-Режиссёр: Майк Гэбриел, Эрик Голдберг / Mike Gabriel, Eric Goldberg
Роли озвучивали: Мэл Гибсон, Кристиан Бэйл, Джуди Кун, Ирен Бедард, Дэвид Огден Стайерз, Джон, Кассир, Рассел Минс, Линда Хант, Дэнни Манн, Билли Коннолли-Описание: Из Европы отправляется в Новый Свет корабль с нашим героем Джоном Смитом. Экипаж, как объясняет капитан, плывет навстречу приключениям, успеху, богатству.
Но сам капитан намерен найти там нечто вполне определенное — золото. А живут в Америке индейцы, и рассказ пойдет о благородной принцессе Покахонтас.-Дополнительная информация:
Рип: CHD-Качество: BDRip 1080p
Формат: MKV
Видео: AVC, 1920х1080, 10,9 Мбит/сек, 23,976 кадр/сек
Аудио: Русский (AC3, 6 ch, 640 Кбит/сек, 48,0 КГц) - Дубляж
Аудио: Русский (AC3, 6 ch, 448 Кбит/сек, 48,0 КГц) - Гаврилов
Аудио: Русский (AC3, 6 ch, 448 Кбит/сек, 48,0 КГц) - Многоголосый
Аудио: Английский (DTS, 6 ch, 1536 Кбит/сек, 48,0 КГц)
Субтитры: Русские, английские-

MediaInfo

Формат : Matroska
Версия формата : Version 2
Размер файла : 7,82 Гбайт
Продолжительность : 1 ч. 21 м.
Общий поток : 13,8 Мбит/сек
Название фильма : ~Sahaa~
Дата кодирования : UTC 2012-04-01 06:45:03
Программа кодирования : mkvmerge v4.0.0 ('The Stars were mine') сборка от Jun 6 2010 16:18:42
Библиотека кодирования : libebml v1.0.0 + libmatroska v1.0.0
Видео
Идентификатор : 1
Формат : AVC
Формат/Информация : Advanced Video Codec
Профиль формата : [email protected]
Параметр CABAC формата : Да
Параметр ReFrames формата : 4 кадра
Идентификатор кодека : V_MPEG4/ISO/AVC
Продолжительность : 1 ч. 21 м.
Битрейт : 10,9 Мбит/сек
Ширина : 1920 пикселей
Высота : 1080 пикселей
Соотношение сторон : 16:9
Частота кадров : 23,976 кадра/сек
Цветовое пространство : YUV
Субдискретизация насыщенности : 4:2:0
Битовая глубина : 8 бит
Тип развёртки : Прогрессивная
Бит/(Пиксели*Кадры) : 0.218
Размер потока : 5,94 Гбайт (76%)
Библиотека кодирования : x264 core 120 r2146 bcd41db
Настройки программы : cabac=1 / ref=4 / deblock=1:-1:-1 / analyse=0x3:0x133 / me=umh / subme=10 / psy=1 / psy_rd=1.05:0.10 / mixed_ref=1 / me_range=48 / chroma_me=1 / trellis=2 / 8x8dct=1 / cqm=0 / deadzone=21,11 / fast_pskip=0 / chroma_qp_offset=-2 / threads=24 / sliced_threads=0 / nr=0 / decimate=1 / interlaced=0 / bluray_compat=0 / constrained_intra=0 / bframes=7 / b_pyramid=2 / b_adapt=2 / b_bias=0 / direct=3 / weightb=1 / open_gop=0 / weightp=2 / keyint=250 / keyint_min=23 / scenecut=40 / intra_refresh=0 / rc_lookahead=60 / rc=2pass / mbtree=0 / bitrate=10858 / ratetol=2.0 / qcomp=0.60 / qpmin=0 / qpmax=69 / qpstep=4 / cplxblur=20.0 / qblur=0.5 / vbv_maxrate=40000 / vbv_bufsize=40000 / nal_hrd=none / ip_ratio=1.40 / pb_ratio=1.30 / aq=2:0.90
Язык : English
Default : Нет
Forced : Нет
Аудио #1
Идентификатор : 2
Формат : AC-3
Формат/Информация : Audio Coding 3
Расширение режима : CM (complete main)
Идентификатор кодека : A_AC3
Продолжительность : 1 ч. 21 м.
Вид битрейта : Постоянный
Битрейт : 640 Кбит/сек
Каналы : 6 каналов
Расположение каналов : Front: L C R, Side: L R, LFE
Частота : 48,0 КГц
Битовая глубина : 16 бит
Метод сжатия : С потерями
Размер потока : 371 Мбайт (5%)
Заголовок : Дубляж
Язык : Russian
Default : Нет
Forced : Нет
Аудио #2
Идентификатор : 3
Формат : AC-3
Формат/Информация : Audio Coding 3
Расширение режима : CM (complete main)
Идентификатор кодека : A_AC3
Продолжительность : 1 ч. 21 м.
Вид битрейта : Постоянный
Битрейт : 448 Кбит/сек
Каналы : 6 каналов
Расположение каналов : Front: L C R, Side: L R, LFE
Частота : 48,0 КГц
Битовая глубина : 16 бит
Метод сжатия : С потерями
Размер потока : 260 Мбайт (3%)
Заголовок : Гаврилов
Язык : Russian
Default : Нет
Forced : Нет
Аудио #3
Идентификатор : 4
Формат : AC-3
Формат/Информация : Audio Coding 3
Расширение режима : CM (complete main)
Идентификатор кодека : A_AC3
Продолжительность : 1 ч. 21 м.
Вид битрейта : Постоянный
Битрейт : 448 Кбит/сек
Каналы : 6 каналов
Расположение каналов : Front: L C R, Side: L R, LFE
Частота : 48,0 КГц
Битовая глубина : 16 бит
Метод сжатия : С потерями
Размер потока : 260 Мбайт (3%)
Заголовок : Многоголосый
Язык : Russian
Default : Нет
Forced : Нет
Аудио #4
Идентификатор : 5
Формат : DTS
Формат/Информация : Digital Theater Systems
Идентификатор кодека : A_DTS
Продолжительность : 1 ч. 21 м.
Вид битрейта : Постоянный
Битрейт : 1510 Кбит/сек
Каналы : 6 каналов
Расположение каналов : Front: L C R, Side: L R, LFE
Частота : 48,0 КГц
Битовая глубина : 24 бит
Метод сжатия : С потерями
Задержка видео : 11 мс.
Размер потока : 876 Мбайт (11%)
Заголовок : Английский
Язык : English
Default : Нет
Forced : Нет
Текст #1
Идентификатор : 6
Формат : UTF-8
Идентификатор кодека : S_TEXT/UTF8
Идентификатор кодека/Информация : UTF-8 Plain Text
Заголовок : Русские
Язык : Russian
Default : Нет
Forced : Нет
Текст #2
Идентификатор : 7
Формат : UTF-8
Идентификатор кодека : S_TEXT/UTF8
Идентификатор кодека/Информация : UTF-8 Plain Text
Заголовок : Английские
Язык : English
Default : Нет
Forced : Нет

[Цитировать]



Показать сообщения:    

Текущее время: 06-Дек 15:14

Часовой пояс: UTC + 3


Вы не можете начинать темы
Вы не можете отвечать на сообщения
Вы не можете редактировать свои сообщения
Вы не можете удалять свои сообщения
Вы не можете голосовать в опросах
Вы не можете прикреплять файлы к сообщениям
Вы не можете скачивать файлы

!ВНИМАНИЕ!
Сайт не предоставляет электронные версии произведений, а занимается лишь коллекционированием и каталогизацией ссылок, присылаемых и публикуемых на форуме нашими читателями. Если вы являетесь правообладателем какого-либо представленного материала и не желаете, чтобы ссылка на него находилась в нашем каталоге, свяжитесь с нами, и мы незамедлительно удалим ее. Файлы для обмена на трекере предоставлены пользователями сайта, и администрация не несет ответственности за их содержание. Просьба не заливать файлы, защищенные авторскими правами, а также файлы нелегального содержания!