[ Сегодня идет свободное скачивание без начисления Download ]


Статистика раздачи
Нет
 
   
 
Top  
 
 
- Близкие враги / Enemies Closer (2013) BDRip "Keep your friends close" - Год выпуска:2013
Страна: Канада, США
Кинокомпания: AfterDark Films, IM Global
Жанр: боевик, триллер
Перевод: Одноголосый закадровый, любительский
Автор перевода: Хихикающий доктор
Дата мировой премьеры: 4 декабря 2013
Режиссер: Питер Хайамс
Продюсеры: Моше Дайамант, Орландо Джонс, Кристофер Милбёрн
Актеры: Жан-Клод Ван Дамм, Орландо Джонс, Том Эверетт Скотт, Линзи Коккер, Кристофер Ван Варенберг, Захари Бахаров, Йонас Токингтон, Атанас Сребрев, Регги Варис, Владо Мажанаов
Описание фильма:
Двум заклятым врагам, столкнувшимся в лесу на американо-канадской границе, приходится объединиться в борьбе против наркокурьеров, желающих любой ценой вернуть свой потерянный груз.
Возраст - лицам до 17 лет обязательно присутствие взрослого
Продолжительность: 01:21:40
Качество видео: BDRip 720p
Видеокодек: AVC
Битрейт видео: 4 000 Kbps (0.042 bit/pixel)
Размер кадра: 1280x720 (16:9), 25.000 fps
Аудио #1: MP3, 48.0 KHz, 2 ch, 192 Kbps, CBR (Russian)
Аудио #2: AC-3, 48.0 KHz, 6 ch, 640 Kbps, CBR (English)

MediaInfo

E:\Zona Downloads\Enemies.Closer.2013.BDRip.720p.mkv
General
Unique ID : 193812722025002658397249868288502233786 (0x91CEF8F5709B609683647E51A8237ABA)
Complete name : E:\Zona Downloads\Enemies.Closer.2013.BDRip.720p.mkv
Format : Matroska
Format version : Version 2
File size : 1.03 GiB
Duration : 1h 21mn
Overall bit rate : 1 808 Kbps
Encoded date : UTC 2013-12-06 16:38:45
Writing application : mkvmerge v5.8.0 ('No Sleep / Pillow') built on Sep 2 2012 15:37:04
Writing library : libebml v1.2.3 + libmatroska v1.3.0
Video #1
ID : 1
Format : AVC
Format/Info : Advanced Video Codec
Format profile : High@L4.1
Format settings, CABAC : Yes
Format settings, ReFrames : 9 frames
Codec ID : V_MPEG4/ISO/AVC
Duration : 1h 21mn
Bit rate : 940 Kbps
Nominal bit rate : 4 000 Kbps
Width : 1 280 pixels
Height : 720 pixels
Display aspect ratio : 16:9
Frame rate mode : Constant
Frame rate : 25.000 fps
Color space : YUV
Chroma subsampling : 4:2:0
Bit depth : 8 bits
Scan type : Progressive
Bits/(Pixel*Frame) : 0.041
Stream size : 549 MiB (52%)
Writing library : x264 core 136 r2348+704+51 d1baef6 tMod [8-bit@all X86]
Encoding settings : cabac=1 / ref=9 / deblock=1:-2:-2 / analyse=0x3:0x133 / me=umh / subme=11 / psy=1 / fade_compensate=0.00 / psy_rd=1.05:0.05 / mixed_ref=1 / me_range=32 / chroma_me=1 / trellis=2 / 8x8dct=1 / cqm=0 / deadzone=21,11 / fast_pskip=0 / chroma_qp_offset=-3 / threads=12 / lookahead_threads=2 / sliced_threads=0 / nr=0 / decimate=0 / interlaced=0 / bluray_compat=0 / constrained_intra=0 / fgo=0 / bframes=8 / b_pyramid=2 / b_adapt=2 / b_bias=0 / direct=3 / weightb=1 / open_gop=0 / weightp=2 / keyint=250 / keyint_min=25 / scenecut=40 / intra_refresh=0 / rc=2pass / mbtree=0 / bitrate=4000 / ratetol=1.0 / qcomp=0.70 / qpmin=0:0:0 / qpmax=69:69:69 / qpstep=4 / cplxblur=20.0 / qblur=0.5 / ip_ratio=1.40 / pb_ratio=1.30 / aq=3:0.85 / aq-sensitivity=10.00 / aq-factor=1.00:1.00:1.00 / aq2=0 / aq3=0
Language : English
Default : Yes
Forced : No
Audio #2
ID : 2
Format : MPEG Audio
Format version : Version 1
Format profile : Layer 3
Mode : Joint stereo
Mode extension : MS Stereo
Codec ID : A_MPEG/L3
Codec ID/Hint : MP3
Duration : 1h 21mn
Bit rate mode : Constant
Bit rate : 192 Kbps
Channel count : 2 channels
Sampling rate : 48.0 KHz
Compression mode : Lossy
Stream size : 112 MiB (11%)
Language : Russian
Default : Yes
Forced : No
Audio #3
ID : 3
Format : AC-3
Format/Info : Audio Coding 3
Mode extension : CM (complete main)
Format settings, Endianness : Big
Codec ID : A_AC3
Duration : 1h 21mn
Bit rate mode : Constant
Bit rate : 640 Kbps
Channel count : 6 channels
Channel positions : Front: L C R, Side: L R, LFE
Sampling rate : 48.0 KHz
Bit depth : 16 bits
Compression mode : Lossy
Stream size : 374 MiB (35%)
Language : English
Default : No
Forced : No
Menu
00:00:00.000 : en:00:00:00.000
00:05:18.040 : en:00:05:18.040
00:11:30.640 : en:00:11:30.640
00:17:17.400 : en:00:17:17.400
00:25:16.600 : en:00:25:16.600
00:32:33.440 : en:00:32:33.440
00:39:45.480 : en:00:39:45.480
00:48:06.400 : en:00:48:06.400
00:56:29.400 : en:00:56:29.400
01:03:02.800 : en:01:03:02.800
01:10:09.800 : en:01:10:09.800
01:16:13.240 : en:01:16:13.240
-

Рецензия к фильму от Альберт Попов

Ну, за Ван Дамма!
В последнее время Ван Дамм мне всё больше и больше начинает нравиться именно как актёр, а не как «мускулы из Брюсселя» (так его звали на заре туманной голливудской юности). Что закономерно. Как пел Вахтанг Кикабидзе, «упали годы мне на плечи, не скинуть эту ношу бытия…» Крутым бойцом по этой причине оставаться уже невозможно, а в тираж уходить ой как не хочется. Остаётся единственный выход- совершенствовать актёрское мастерство, больше воздействовать на зрителя психологически, нежели «физически». По тому же пути идут коллеги Жан-Клода «железный Шварц» и Слай, которые, постарев, начали раскрываться как очень даже неплохие драматические актёры, что не может не радовать их истинных поклонников. Однако всем им очень далеко до дедушки Шона Коннери, который, перестав сниматься в роли Джеймса Бонда (а, на мой взгляд, он был лучшим, классическим Бондом «всех времён и народов», и не только по первенству), так творчески, актёрски «расцвёл», что самые его лучшие, глубокие, интересные роли в кино пришлись именно на постбондовский период. «Но, впрочем, песня не о нём, а о…»
О фильме «Близкие враги», конечно же. Я смотрел его во время субботней релаксации, попивая лёгкое винцо. И это была лучшая, вкусная кинозакуска! Чисто постановочная лента в старом добром духе боевиков конца 80-х- 90-х годов (что меня ностальгически согрело), где компьютеры использовались «чисто технически» и не главенствовали, где изначально (но не раздражительно!) было ясно, что «наши всех побьют», а двое врагов поймут друг друга и объединятся против третьего и главного… Но всё- таки здесь присутствовали и неожиданные интриги. Да и вообще довольно редкий случай для Ван Дамма, когда он играет отрицательного персонажа- главу боевиков наркомафии (правда, накануне был ещё один такой- в «Неудержимых-2», а в начале голливудской карьеры актёра ещё парочка, когда Жан-Клод играл «нехороших русских»; вспомним ещё «Репликанта»).
Так что для уикенда «Близкие враги» вполне то, что надо! Всё «удовольствие» обошлось студии в сущую, по нынешним временам, бюджетную мелочь- какие-то 8 млн. баксов. Понятно, что львиная доля из них пошла на гонорар Ван Дамма. Да и правильно. Ведь на пике популярности ему «отстёгивали» за фильм 8 миллионов «зелени». В общем, давайте поднимем рюмки-бокалы-стаканы и скажем словами «генерала Булдакова»: «Ну, за Ван Дамма!» А кстати, он всего на 2 года старше меня. Значит, не такой уж и старичок! Ещё рюмку!
Скриншоты:
Время раздачи:
с 10:00 до 22:30 по возможности и в другое время

[Цитировать]



Показать сообщения:    

Текущее время: 10-Дек 06:05

Часовой пояс: UTC + 3


Вы не можете начинать темы
Вы не можете отвечать на сообщения
Вы не можете редактировать свои сообщения
Вы не можете удалять свои сообщения
Вы не можете голосовать в опросах
Вы не можете прикреплять файлы к сообщениям
Вы не можете скачивать файлы

!ВНИМАНИЕ!
Сайт не предоставляет электронные версии произведений, а занимается лишь коллекционированием и каталогизацией ссылок, присылаемых и публикуемых на форуме нашими читателями. Если вы являетесь правообладателем какого-либо представленного материала и не желаете, чтобы ссылка на него находилась в нашем каталоге, свяжитесь с нами, и мы незамедлительно удалим ее. Файлы для обмена на трекере предоставлены пользователями сайта, и администрация не несет ответственности за их содержание. Просьба не заливать файлы, защищенные авторскими правами, а также файлы нелегального содержания!