[ Сегодня идет свободное скачивание без начисления Download ]


Статистика раздачи
Нет
 
   
 
Top  
 
 
-Капитан Филлипс / Captain Phillips (2013) BDRip [720p] [Звук с TS]- Год выпуска: 2013
Производство: США, Michael De Luca Productions, Scott Rudin Productions, Translux, Trigger Street Productions
Жанр: Боевик, Приключения, Триллер
Перевод: Дублированный [Звук с TS]
Субтитры: Вшитые отключаемые
Язык субтитров: Английский
Примечание: Речь сомалийцев озвучена одноголосым переводом!
Дата мировой премьеры: 27 сентября 2013
Дата российской премьеры: 5 декабря 2013, «WDSSPR»
Дата выхода DVD релиза: 11 марта 2014, «Columbia/Sony»
Режиссер: Пол Гринграсс
Продюсер: Дэна Брунетти, Майкл Де Лука, Скотт Рудин
Актеры: Том Хэнкс, Кэтрин Кинер, Макс Мартини, Джон Магаро, Крис Малки, Дэвид Уоршофски, Юл Васкез, Майкл Чернус, Кори Джонсон, Мария Дицциа
Описание фильма:В начале апреля 2009 года, близ берегов Африки, несколько сомалийских пиратов атакуют и пытаются захватить массивный контейнеровоз MV Maersk Alabama. Команда корабля активно сопротивляется и в конце концов не даёт взять себя в плен. Захватчики вынуждены ретироваться и покинуть судно на небольшом катере, прихватив с собой немолодого капитана Ричарда Филлипса…
Продолжительность: 02:14:04
Качество видео: BDRip [720p] [profile-LQ]
Видеокодек: MPEG-4 AVC/H.264
Битрейт видео: ~4325 Kbps
Размер кадра: 1280x536
Аудио #1: Русский: MP3, 48.0 KHz, 2 ch, 128 Kbps, CBR
Аудио #2: Английский: DTS, 48.0 KHz, 6 ch, 1510 Kbps, CBR
Сэмпл: Скачать

MediaInfo

Общее
Уникальный идентификатор : 247211137941594850360433021504195760317 (0xB9FB2220EACB730B92CD01AEB79190BD)
Полное имя : D:\Фильмы\Kapitan.Filips.2013.Dt.BRip.720p.mkv
Формат : Matroska
Версия формата : Version 2
Размер файла : 5,58 Гбайт
Продолжительность : 2 ч. 14 м.
Общий поток : 5963 Кбит/сек
Дата кодирования : UTC 2014-01-08 21:14:07
Программа кодирования : mkvmerge v5.0.1 ('Es ist Sommer') built on Oct 24 2011 19:45:06
Библиотека кодирования : libebml v1.2.2 + libmatroska v1.3.0
Видео
Идентификатор : 1
Формат : AVC
Формат/Информация : Advanced Video Codec
Профиль формата : High@L4.1
Параметр CABAC формата : Да
Параметр ReFrames формата : 5 кадров
Идентификатор кодека : V_MPEG4/ISO/AVC
Продолжительность : 2 ч. 14 м.
Битрейт : 4325 Кбит/сек
Ширина : 1280 пикселей
Высота : 536 пикселей
Соотношение сторон : 2,40:1
Режим частоты кадров : Постоянный
Частота кадров : 23,976 кадра/сек
Цветовое пространство : YUV
Субдискретизация насыщенности : 4:2:0
Битовая глубина : 8 бит
Тип развёртки : Прогрессивная
Бит/(Пиксели*Кадры) : 0.263
Размер потока : 3,94 Гбайт (71%)
Библиотека кодирования : x264 core 140 r2377 1ca7bb9
Настройки программы : cabac=1 / ref=5 / deblock=1:-3:-3 / analyse=0x3:0x113 / me=umh / subme=8 / psy=1 / psy_rd=1.00:0.00 / mixed_ref=1 / me_range=16 / chroma_me=1 / trellis=1 / 8x8dct=1 / cqm=0 / deadzone=21,11 / fast_pskip=1 / chroma_qp_offset=-2 / threads=18 / lookahead_threads=3 / sliced_threads=0 / nr=0 / decimate=1 / interlaced=0 / bluray_compat=0 / constrained_intra=0 / bframes=3 / b_pyramid=2 / b_adapt=2 / b_bias=0 / direct=3 / weightb=1 / open_gop=0 / weightp=2 / keyint=240 / keyint_min=24 / scenecut=40 / intra_refresh=0 / rc_lookahead=50 / rc=2pass / mbtree=1 / bitrate=4325 / ratetol=1.0 / qcomp=0.60 / qpmin=0 / qpmax=69 / qpstep=4 / cplxblur=20.0 / qblur=0.5 / ip_ratio=1.40 / aq=1:1.00
Язык : English
Default : Да
Forced : Нет
Аудио #1
Идентификатор : 2
Формат : MPEG Audio
Версия формата : Version 1
Профиль формата : Layer 3
Режим : Joint stereo
Расширение режима : MS Stereo
Идентификатор кодека : A_MPEG/L3
Идентификатор кодека/Подсказка : MP3
Продолжительность : 2 ч. 14 м.
Вид битрейта : Постоянный
Битрейт : 128 Кбит/сек
Каналы : 2 канала
Частота : 48,0 КГц
Метод сжатия : С потерями
Размер потока : 123 Мбайт (2%)
Язык : Russian
Default : Да
Forced : Нет
Аудио #2
Идентификатор : 3
Формат : DTS
Формат/Информация : Digital Theater Systems
Режим : 16
Параметр Endianness формата : Big
Идентификатор кодека : A_DTS
Продолжительность : 2 ч. 14 м.
Вид битрейта : Постоянный
Битрейт : 1509 Кбит/сек
Каналы : 6 каналов
Расположение каналов : Front: L C R, Side: L R, LFE
Частота : 48,0 КГц
Битовая глубина : 24 бит
Метод сжатия : С потерями
Размер потока : 1,41 Гбайт (25%)
Язык : English
Default : Нет
Forced : Нет
Текст #1
Идентификатор : 4
Формат : UTF-8
Идентификатор кодека : S_TEXT/UTF8
Идентификатор кодека/Информация : UTF-8 Plain Text
Заголовок : Forced
Язык : English
Default : Да
Forced : Нет
Текст #2
Идентификатор : 5
Формат : UTF-8
Идентификатор кодека : S_TEXT/UTF8
Идентификатор кодека/Информация : UTF-8 Plain Text
Язык : English
Default : Нет
Forced : Нет
Текст #3
Идентификатор : 6
Формат : UTF-8
Идентификатор кодека : S_TEXT/UTF8
Идентификатор кодека/Информация : UTF-8 Plain Text
Заголовок : SDH
Язык : English
Default : Нет
Forced : Нет
Меню
00:00:00.000 : en:00:00:00.000
00:09:12.927 : en:00:09:12.927
00:15:30.138 : en:00:15:30.138
00:22:48.742 : en:00:22:48.742
00:30:11.435 : en:00:30:11.435
00:39:38.876 : en:00:39:38.876
00:48:01.003 : en:00:48:01.003
00:58:24.751 : en:00:58:24.751
01:04:36.539 : en:01:04:36.539
01:13:02.837 : en:01:13:02.837
01:19:14.249 : en:01:19:14.249
01:25:41.261 : en:01:25:41.261
01:34:14.023 : en:01:34:14.023
01:41:44.598 : en:01:41:44.598
01:51:32.102 : en:01:51:32.102
02:02:38.851 : en:02:02:38.851
Скриншоты:

[Цитировать]



Показать сообщения:    

Текущее время: 08-Дек 03:10

Часовой пояс: UTC + 3


Вы не можете начинать темы
Вы не можете отвечать на сообщения
Вы не можете редактировать свои сообщения
Вы не можете удалять свои сообщения
Вы не можете голосовать в опросах
Вы не можете прикреплять файлы к сообщениям
Вы не можете скачивать файлы

!ВНИМАНИЕ!
Сайт не предоставляет электронные версии произведений, а занимается лишь коллекционированием и каталогизацией ссылок, присылаемых и публикуемых на форуме нашими читателями. Если вы являетесь правообладателем какого-либо представленного материала и не желаете, чтобы ссылка на него находилась в нашем каталоге, свяжитесь с нами, и мы незамедлительно удалим ее. Файлы для обмена на трекере предоставлены пользователями сайта, и администрация не несет ответственности за их содержание. Просьба не заливать файлы, защищенные авторскими правами, а также файлы нелегального содержания!