[ Сегодня идет свободное скачивание без начисления Download ]


Статистика раздачи
Буду качать: [ 1 ]
 
   
 
Top  
 
 
-Принц Персии:Пески времени / Prince of Persia: The Sands of Time (2010) BDRip [720p] [hand made 60fps]- Год выпуска: 2010
Жанр: [sh]Боевик, Фэнтези, Приключения[/sh]
Производитель:США
Описание фильма:
Главный герой этой экранизации культовой компьютерной игры, юный принц Дастан всегда побеждал врагов в бою, но потерял королевство из-за козней коварного царедворца. Теперь Дастану предстоит похитить из рук злодеев могущественный магический артефакт, способный повернуть время вспять и сделать своего владельца властелином мира. Помочь одолеть врагов Дастану помогут его блестящие навыки владения холодным оружием, а также недюжинные способности к акробатике и эквилибристике.
Режиссер: Майк Ньюэлл
Актеры:Джейк Джилленхол , Джемма Артертон , Бен Кингсли , Альфред Молина , Стив Туссэн , Тоби Кеббелл , Ричард Койл , Рональд Пикап , Рис Ричи , Гисли Орн Гардарссон
Продолжительность: 01:55:53
Качество видео: BDRip 720p
Перевод: Дублированный
Язык субтитров: Rus (форсированные)
Вид субтитров: Вшитые
Видеокодек: MPEG-4 AVC/H.264
Битрейт видео: ~13600 kb/s
Размер кадра: 1280*536
Аудиокодек: AC3 5.1
Битрейт аудио: 640 kb/s

Рецензия, отзыв о фильме

В 2,5 раза больше кадров!
В 2,5 раза больше исходника!
В 2,5 раза плавнее! (59,94 fps

MI

Общее
Уникальный идентификатор : 250917408061469933752386768160135283524 (0xBCC4EF5A8B98B44586D8B11AFB2B8344)
Полное имя : Z:\Фильмы\Принц персии пески времени.mkv
Формат : Matroska
Версия формата : Version 4 / Version 2
Размер файла : 11,8 Гбайт
Продолжительность : 1 ч. 55 м.
Общий поток : 14,5 Мбит/сек
Название фильма : Batman.Beyond.Return.of.the.Joker.2000.1080p.Bluray.AVC.Remux
Дата кодирования : UTC 2014-01-05 04:40:20
Программа кодирования : mkvmerge v6.6.0 ('The Edge Of The In Between') built on Dec 1 2013 17:55:00
Библиотека кодирования : libebml v1.3.0 + libmatroska v1.4.1
Видео
Идентификатор : 2
Формат : AVC
Формат/Информация : Advanced Video Codec
Профиль формата : High@L3.2
Параметр CABAC формата : Да
Параметр ReFrames формата : 4 кадра
Идентификатор кодека : V_MPEG4/ISO/AVC
Продолжительность : 1 ч. 55 м.
Битрейт : 13,6 Мбит/сек
Ширина : 1280 пикселей
Высота : 536 пикселей
Соотношение сторон : 2,40:1
Режим частоты кадров : Постоянный
Частота кадров : 59,880 кадров/сек
Частота кадров в оригинале : 59,940 кадров/сек
Цветовое пространство : YUV
Субдискретизация насыщенности : 4:2:0
Битовая глубина : 8 бит
Тип развёртки : Прогрессивная
Бит/(Пиксели*Кадры) : 0.331
Размер потока : 11,0 Гбайт (94%)
Библиотека кодирования : x264 core 133 r2334 a3ac64b
Настройки программы : cabac=1 / ref=3 / deblock=1:0:0 / analyse=0x3:0 / me=dia / subme=1 / psy=1 / psy_rd=1.00:0.00 / mixed_ref=0 / me_range=16 / chroma_me=1 / trellis=1 / 8x8dct=1 / cqm=0 / deadzone=21,11 / fast_pskip=1 / chroma_qp_offset=0 / threads=6 / lookahead_threads=1 / sliced_threads=0 / nr=0 / decimate=1 / interlaced=0 / bluray_compat=0 / constrained_intra=0 / bframes=3 / b_pyramid=2 / b_adapt=1 / b_bias=0 / direct=1 / weightb=1 / open_gop=0 / weightp=2 / keyint=250 / keyint_min=25 / scenecut=40 / intra_refresh=0 / rc=cqp / mbtree=0 / qp=16 / ip_ratio=1.40 / pb_ratio=1.30 / aq=0
Default : Да
Forced : Нет
Аудио
Идентификатор : 3
Формат : AC-3
Формат/Информация : Audio Coding 3
Расширение режима : CM (complete main)
Параметр Endianness формата : Big
Идентификатор кодека : A_AC3
Продолжительность : 1 ч. 55 м.
Вид битрейта : Постоянный
Битрейт : 640 Кбит/сек
Каналы : 6 каналов
Расположение каналов : Front: L C R, Side: L R, LFE
Частота : 48,0 КГц
Битовая глубина : 16 бит
Метод сжатия : С потерями
Размер потока : 531 Мбайт (4%)
Заголовок : AC3 5.1ch 640 kbps [Дубляж]
Язык : Russian
Default : Нет
Forced : Нет
Текст
Идентификатор : 1
Формат : UTF-8
Идентификатор кодека : S_TEXT/UTF8
Идентификатор кодека/Информация : UTF-8 Plain Text
Заголовок : Forced
Язык : Russian
Default : Да
Forced : Да
Меню
00:00:00.000 : en:В далёкой стране... / In A land Far Away
00:04:24.555 : en:Совет / The Counsil
00:08:37.391 : en:Нападение на Аламут / Attack On Alamut
00:16:52.761 : en:Тамина показывает лицо / Tamina Unveiled
00:22:51.578 : en:Братство и верность / Brotherhood & Loyalty
00:29:07.787 : en:Кинжал / The Dagger
00:32:57.850 : en:Долина рабов / Valley Of Slaves
00:36:58.173 : en:Общение с шейхом / Dealing With A Sheik
00:40:31.094 : en:Побег Дастана и Тамины / Dastan & Tamina Escape
00:46:08.264 : en:Дастан доверяется Низаму / Trusting Nizam
00:58:00.726 : en:Видения смерти / Versions Of Death
01:00:17.029 : en:Песчаная буря / The Sand Storm
01:07:01.099 : en:Засада в оазисе / Oasis Ambush
01:10:47.742 : en:Возвращая кинжал / Returning The Dagger
01:15:46.457 : en:Нападение ассассинов / Hassansin Attack
01:20:37.122 : en:Возвращение в Аламут / Return To Alamut
01:27:37.292 : en:Необычный кинжал / No Ordinary Dagger
01:32:19.366 : en:Пески времени / Sands Of Time
01:40:51.669 : en:Судьба / Destiny
01:48:29.751 : en:Финальные титры / End Credits
Скриншоты:
[th]http://img.torrentsclub.org/di/60YE/4qh3.png[/th] [th]http://img.torrentsclub.org/di/85MS/spq2.png[/th] [th]http://img.torrentsclub.org/di/O87C/uyf8.png[/th] [th]http://img.torrentsclub.org/di/1F5Z/w86m.png[/th]
Время раздачи: 24/7

[Цитировать]



Показать сообщения:    

Текущее время: 07-Дек 19:23

Часовой пояс: UTC + 3


Вы не можете начинать темы
Вы не можете отвечать на сообщения
Вы не можете редактировать свои сообщения
Вы не можете удалять свои сообщения
Вы не можете голосовать в опросах
Вы не можете прикреплять файлы к сообщениям
Вы не можете скачивать файлы

!ВНИМАНИЕ!
Сайт не предоставляет электронные версии произведений, а занимается лишь коллекционированием и каталогизацией ссылок, присылаемых и публикуемых на форуме нашими читателями. Если вы являетесь правообладателем какого-либо представленного материала и не желаете, чтобы ссылка на него находилась в нашем каталоге, свяжитесь с нами, и мы незамедлительно удалим ее. Файлы для обмена на трекере предоставлены пользователями сайта, и администрация не несет ответственности за их содержание. Просьба не заливать файлы, защищенные авторскими правами, а также файлы нелегального содержания!