[ Сегодня идет свободное скачивание без начисления Download ]


Статистика раздачи
Нет
 
   
 
 
 
- Год выпуска: 2009
Страна: Япония
Жанр: боевик, драма
Продолжительность: 26 эп. по 25 мин.
Выпуск: c 03.04.2009 по 25.09.2009-Перевод:
  • русские субтитры от Jenia aka Zub & Мария Гостюхина & Ginn (полные/вспомогательные)
-Режиссер: Масимо Койти
Студия: Bee Train-Описание:
Зловещая организация «Инферно» расчищает дорогу к власти, одного за другим устраняя боссов американской мафии руками «Фантома» - легендарного киллера, не ведающего неудач. Кроме имени, о призрачном убийце мало что известно, ведь видевшие его «за работой» уже ничего не расскажут. Но то, что неведомо бывалым бандитам и вездесущим спецслужбам, случайно узнает молодой японец Рэйдзи, в одиночку странствующий по Штатам. Быть бы нежелательному свидетелю на небесах, но босс, наблюдавший за операцией, остановил Фантома в последний момент…
Боссам «Инферно» понравилось поведение Рэйдзи перед смертью, и ему дали второй шанс. Промыв парню мозги и стерев память, новые хозяева решили, что быстрые рефлексы и воля к жизни сделают его отличным исполнителем. Так что когда Рэйдзи очнулся, не помня себя, в какой-то дыре, перед ним явилась милая девушка, назвавшаяся Айн («первая») и предложила сыграть в игру на выживание. Это и был легендарный Фантом. Но и наш герой оказался не лыком шит, достойно сдав последний экзамен (хотя противница, конечно, поддавалась). Теперь новичок получил кодовое имя Цвай («второй») и был зачислен к Айн в стажеры. Только оба они, хотя и потеряли память, ума не утратили и вскоре поняли, что долго такая жизнь продолжаться не может. Вопрос остался лишь один – ждать или стрелять первым?
© Hollow, World Art-Информационные ссылки: AniDB || World Art || MAL-Качество: BDRip
Энкод: Winter - RG Pantheon
Тип видео: без хардсаба
Формат: mkv
Видео: x264 (Hi10p), 1280x720, ~3500 Kbps, 23.976 fps
Аудио JAP: Vorbis, 48000Hz, ~256 Kbps, 2ch
Аудио RUS 1: AC3, 48000Hz, ~192 Kbps, 2ch (внешними файлами)
Аудио RUS 2: AC3, 48000Hz, ~192 Kbps, 2ch (внешними файлами)
Аудио RUS 3-4: AC3, 48000Hz, ~192 Kbps, 2ch (внешними файлами)-

Список озвучек в раздаче

  • одноголосая (жен.) от Noir (AniDub)
  • одноголосая (муж.) от Shachiburi (Animedia)
  • двухголосая (муж./жен.) от NeaR & Mosa (Anifilm) [1-2]
  • двухголосая (муж./жен.) от Valkrist & Keneretta [1-5], Valkrist & Kasumi [6-26] (ARRU)

Список эпизодов

01. Awakening
02. Training
03. Putting It Into Practice
04. Assassination
05. Instant
06. Great Fire
07. The Past
08. Emergency
09. Name
10. End
11. Succession
12. Apparition
13. Disguise
14. Surveillance
15. Reunion
16. Confession
17. Truth
18. Showdown
19. Promise
20. Old Home
21. Anger
22. Rage
23. Determination
24. Confronting
25. Conclusion
26. Elen

Подробные тех. данные

Общее
Уникальный идентификатор : 232421326726685782483154498618983659546 (0xAEDAB8231BC75404AC3E45E1023B381A)
Полное имя : Z:\Anime\720p\Phantom - Requiem for the Phantom [BD] [720p]\[Winter] Phantom - Requiem for the Phantom 06 [BDrip 1280x720 x264 Vorbis].mkv
Формат : Matroska
Версия формата : Version 2
Размер файла : 959 Мбайт
Продолжительность : 23 м.
Режим общего битрейта : Переменный
Общий поток : 5686 Кбит/сек
Дата кодирования : UTC 2013-11-16 19:29:12
Программа кодирования : mkvmerge v2.9.8 ('C'est le bon') built on Aug 13 2009 12:49:06
Библиотека кодирования : libebml v0.7.7 + libmatroska v0.8.1
Видео
Идентификатор : 1
Формат : AVC
Формат/Информация : Advanced Video Codec
Профиль формата : High 10@L4.1
Параметр CABAC формата : Да
Параметр ReFrames формата : 9 кадров
Идентификатор кодека : V_MPEG4/ISO/AVC
Продолжительность : 23 м.
Битрейт : 5317 Кбит/сек
Ширина : 1280 пикселей
Высота : 720 пикселей
Соотношение сторон : 16:9
Режим частоты кадров : Постоянный
Частота кадров : 23,976 кадра/сек
Цветовое пространство : YUV
Субдискретизация насыщенности : 4:2:0
Битовая глубина : 10 бит
Тип развёртки : Прогрессивная
Бит/(Пиксели*Кадры) : 0.241
Размер потока : 897 Мбайт (94%)
Библиотека кодирования : x264 core 132 r2309 3b1f1f7
Настройки программы : cabac=1 / ref=9 / deblock=1:-2:-2 / analyse=0x3:0x133 / me=umh / subme=9 / psy=1 / psy_rd=0.90:0.00 / mixed_ref=1 / me_range=24 / chroma_me=1 / trellis=2 / 8x8dct=1 / cqm=0 / deadzone=21,11 / fast_pskip=1 / chroma_qp_offset=-2 / threads=6 / lookahead_threads=1 / sliced_threads=0 / nr=0 / decimate=0 / interlaced=0 / bluray_compat=0 / constrained_intra=0 / bframes=8 / b_pyramid=2 / b_adapt=2 / b_bias=0 / direct=1 / weightb=1 / open_gop=0 / weightp=2 / keyint=250 / keyint_min=23 / scenecut=40 / intra_refresh=0 / rc=crf / mbtree=0 / crf=17.5 / qcomp=0.70 / qpmin=9 / qpmax=42 / qpstep=4 / ip_ratio=1.40 / pb_ratio=1.30 / aq=1:0.90
Default : Нет
Forced : Нет
Аудио
Идентификатор : 2
Формат : Vorbis
Параметр Floor формата : 1
Идентификатор кодека : A_VORBIS
Продолжительность : 23 м.
Вид битрейта : Переменный
Битрейт : 256 Кбит/сек
Каналы : 2 канала
Частота : 48,0 КГц
Метод сжатия : С потерями
Размер потока : 43,2 Мбайт (5%)
Библиотека кодирования : libVorbis (Schaufenugget) (20101101 (Schaufenugget))
Язык : Japanese
Default : Да
Forced : Нет

[Цитировать]



Показать сообщения:    

Текущее время: 09-Дек 18:32

Часовой пояс: UTC + 3


Вы не можете начинать темы
Вы не можете отвечать на сообщения
Вы не можете редактировать свои сообщения
Вы не можете удалять свои сообщения
Вы не можете голосовать в опросах
Вы не можете прикреплять файлы к сообщениям
Вы не можете скачивать файлы

!ВНИМАНИЕ!
Сайт не предоставляет электронные версии произведений, а занимается лишь коллекционированием и каталогизацией ссылок, присылаемых и публикуемых на форуме нашими читателями. Если вы являетесь правообладателем какого-либо представленного материала и не желаете, чтобы ссылка на него находилась в нашем каталоге, свяжитесь с нами, и мы незамедлительно удалим ее. Файлы для обмена на трекере предоставлены пользователями сайта, и администрация не несет ответственности за их содержание. Просьба не заливать файлы, защищенные авторскими правами, а также файлы нелегального содержания!