[ Сегодня идет свободное скачивание без начисления Download ]


Статистика раздачи
Нет
 
   
 
Top  
 
 
-Росомаха: Бессмертный / The Wolverine (2013) BDRip«When he's most vulnerable, he's most dangerous»- Год выпуска: 2013
Производство: США, Великобритания
Жанр: [sh]Фантастика, Фэнтези, Боевик, Приключения[/sh]
Перевод: Дублированный (лицензия)
Субтитры: Вшитые отключаемые / отдельным файлом
Язык субтитров: Русский (на японскую речь)
Дата мировой премьеры: 16 июля 2013
Дата российской премьеры: 25 июля 2013, «Двадцатый Век Фокс СНГ»
Дата выхода DVD релиза: 28 ноября 2013, «Двадцатый Век Фокс СНГ»
Дата выхода BLU-RAY релиза: 28 ноября 2013, «Двадцатый Век Фокс СНГ»
Режиссер: Джеймс Мэнголд
Продюсер: Хью Джекман, Хатч Паркер, Лорен Шулер Доннер
Актеры: Хью Джекман, Тао Окамото, Рила Фукусима, Светлана Ходченкова, Уилл Юн Ли, Харукико Яманоути, Хироюки Санада, Брайан Ти, Кен Ямамура, Фамке Янссен
Описание фильма:
Новая глава приключений Росомахи развернётся в Японии, где Логану предстоит выяснить, что острее — когти Росомахи или меч Серебряного Самурая. -

-Продолжительность: 02:06:08
Качество видео: BDRip 1080p
Контейнер: MKV
Формат 3D: Anamorph OverUnder / Вертикальная анаморфная стереопара
Видеокодек: MPEG-4 AVC/H.264
Битрейт видео: ~10,7 Мбит/сек
Размер кадра: 1920x1080
Аудио 1: AC3 5.1, 640 kbps [Русский]
Аудио 2: AC3 5.1, 640 kbps [Английский]-

Media info:

Общее
Уникальный идентификатор : 222746975030298229407882756745210193407 (0xA79381C5B8E80CB489720622CC7165FF)
Полное имя : F:\my films\Wolverine_3D\Wolverine_3D.mkv
Формат : Matroska
Версия формата : Version 2
Размер файла : 10,8 Гбайт
Продолжительность : 2 ч. 6 м.
Общий поток : 12,3 Мбит/сек
Название фильма : Wolverine_3D_Crop_O/U
Дата кодирования : UTC 2013-12-03 19:15:26
Программа кодирования : mkvmerge v5.7.0 ('The Whirlwind') built on Aug 7 2012 14:11:40
Библиотека кодирования : libebml v1.2.3 + libmatroska v1.3.0
Видео
Идентификатор : 1
Формат : AVC
Формат/Информация : Advanced Video Codec
Профиль формата : High@L4.1
Параметр CABAC формата : Да
Параметр ReFrames формата : 4 кадра
Идентификатор кодека : V_MPEG4/ISO/AVC
Продолжительность : 2 ч. 6 м.
Битрейт : 10,7 Мбит/сек
Ширина : 1920 пикселей
Высота : 1080 пикселей
Соотношение сторон : 16:9
Режим частоты кадров : Постоянный
Частота кадров : 23,976 кадра/сек
Цветовое пространство : YUV
Субдискретизация насыщенности : 4:2:0
Битовая глубина : 8 бит
Тип развёртки : Прогрессивная
Бит/(Пиксели*Кадры) : 0.216
Размер потока : 9,47 Гбайт (88%)
Заголовок : rip by I/N
Библиотека кодирования : x264 core 128 r2216M 198a7ea
Настройки программы : cabac=1 / ref=4 / deblock=1:-3:-3 / analyse=0x3:0x133 / me=umh / subme=10 / psy=1 / psy_rd=1.00:0.15 / mixed_ref=1 / me_range=32 / chroma_me=1 / trellis=2 / 8x8dct=1 / cqm=0 / deadzone=21,11 / fast_pskip=1 / chroma_qp_offset=-3 / threads=8 / lookahead_threads=1 / sliced_threads=0 / nr=0 / decimate=1 / interlaced=0 / bluray_compat=0 / constrained_intra=0 / bframes=6 / b_pyramid=2 / b_adapt=2 / b_bias=0 / direct=3 / weightb=1 / open_gop=0 / weightp=2 / keyint=230 / keyint_min=23 / scenecut=40 / intra_refresh=0 / rc_lookahead=60 / rc=crf / mbtree=1 / crf=18.0 / qcomp=0.60 / qpmin=0 / qpmax=69 / qpstep=4 / vbv_maxrate=40000 / vbv_bufsize=30000 / crf_max=30.0 / nal_hrd=none / ip_ratio=1.40 / aq=1:1.00
Default : Да
Forced : Нет
Аудио #1
Идентификатор : 2
Формат : AC-3
Формат/Информация : Audio Coding 3
Расширение режима : CM (complete main)
Параметр Endianness формата : Big
Идентификатор кодека : A_AC3
Продолжительность : 2 ч. 6 м.
Вид битрейта : Постоянный
Битрейт : 640 Кбит/сек
Каналы : 6 каналов
Расположение каналов : Front: L C R, Side: L R, LFE
Частота : 48,0 КГц
Битовая глубина : 16 бит
Метод сжатия : С потерями
Размер потока : 577 Мбайт (5%)
Заголовок : Дубляж
Язык : Russian
Default : Да
Forced : Нет
Аудио #2
Идентификатор : 3
Формат : AC-3
Формат/Информация : Audio Coding 3
Расширение режима : CM (complete main)
Параметр Endianness формата : Big
Идентификатор кодека : A_AC3
Продолжительность : 2 ч. 6 м.
Вид битрейта : Постоянный
Битрейт : 640 Кбит/сек
Каналы : 6 каналов
Расположение каналов : Front: L C R, Side: L R, LFE
Частота : 48,0 КГц
Битовая глубина : 16 бит
Метод сжатия : С потерями
Размер потока : 577 Мбайт (5%)
Заголовок : Original
Язык : English
Default : Нет
Forced : Нет
Текст
Идентификатор : 4
Формат : UTF-8
Идентификатор кодека : S_TEXT/UTF8
Идентификатор кодека/Информация : UTF-8 Plain Text
Заголовок : Forced
Язык : Russian
Default : Да
Forced : Нет
Меню
00:00:00.000 : en:(01)00:00:00:000
00:05:03.720 : en:(02)00:05:03:720
00:07:39.667 : en:(03)00:07:39:667
00:08:40.436 : en:(04)00:08:40:436
00:10:25.499 : en:(05)00:10:25:499
00:13:56.794 : en:(06)00:13:56:794
00:16:49.299 : en:(07)00:16:49:299
00:19:13.068 : en:(08)00:19:13:068
00:22:03.739 : en:(09)00:22:03:739
00:26:38.305 : en:(10)00:26:38:305
00:28:53.398 : en:(11)00:28:53:398
00:30:21.402 : en:(12)00:30:21:402
00:33:43.146 : en:(13)00:33:43:146
00:38:08.244 : en:(14)00:38:08:244
00:42:42.309 : en:(15)00:42:42:309
00:44:19.073 : en:(16)00:44:19:073
00:47:06.740 : en:(17)00:47:06:740
00:52:38.280 : en:(18)00:52:38:280
00:54:37.315 : en:(19)00:54:37:315
01:00:06.477 : en:(20)01:00:06:477
01:06:16.222 : en:(21)01:06:16:222
01:11:36.959 : en:(22)01:11:36:959
01:16:25.205 : en:(23)01:16:25:205
01:19:30.807 : en:(24)01:19:30:807
01:22:34.574 : en:(25)01:22:34:574
01:27:33.206 : en:(26)01:27:33:206
01:30:37.140 : en:(27)01:30:37:140
01:33:00.032 : en:(28)01:33:00:032
01:36:33.204 : en:(29)01:36:33:204
01:40:14.216 : en:(30)01:40:14:216
01:43:04.511 : en:(31)01:43:04:511
01:46:07.569 : en:(32)01:46:07:569
01:51:06.076 : en:(33)01:51:06:076
01:53:01.483 : en:(34)01:53:01:483
01:55:50.777 : en:(35)01:55:50:777
01:57:21.451 : en:(36)01:57:21:451
02:06:08.310 : en:(37)02:06:08:310

Особенности релиза:

Справа и слева у видеоряда обрезано по 248р, что дает возможность просмотра на полный экран (без черных полос) на телевизорах с соотношением сторон 16:9 без изменения пропорций. На мой взгляд плюсы данных рипов- это более глубокое восприятие 3D-эффектов (конечно там где они есть) К минусам отнесу- вынужденное обрезание кадра по бокам. Так-что господа- выбор за вами! Всем приятного просмотра!
Проверено на встроенном плейере ТВ Samsung-D6500Скриншоты:
[th]http://img.torrentsclub.org/di/FJAP/1d41bb4b0e1b813...8d0d06d.png[/th] [th]http://img.torrentsclub.org/di/ASFC/789562033edb3af...3c3d88c.png[/th] [th]http://img.torrentsclub.org/di/ZR15/d2171f0ea803a33...f7b448c.png[/th]
Время раздачи: 24/7 - круглосуточно до 10 скачавших

[Цитировать]



Показать сообщения:    

Текущее время: 02-Дек 21:02

Часовой пояс: UTC + 3


Вы не можете начинать темы
Вы не можете отвечать на сообщения
Вы не можете редактировать свои сообщения
Вы не можете удалять свои сообщения
Вы не можете голосовать в опросах
Вы не можете прикреплять файлы к сообщениям
Вы не можете скачивать файлы

!ВНИМАНИЕ!
Сайт не предоставляет электронные версии произведений, а занимается лишь коллекционированием и каталогизацией ссылок, присылаемых и публикуемых на форуме нашими читателями. Если вы являетесь правообладателем какого-либо представленного материала и не желаете, чтобы ссылка на него находилась в нашем каталоге, свяжитесь с нами, и мы незамедлительно удалим ее. Файлы для обмена на трекере предоставлены пользователями сайта, и администрация не несет ответственности за их содержание. Просьба не заливать файлы, защищенные авторскими правами, а также файлы нелегального содержания!