[ Сегодня идет свободное скачивание без начисления Download ]


Статистика раздачи
Нет
 
   
 
Top  
 
 
Пока станица спит (Казаки)
Год выпуска: 2013
Производство: Мостелефильм, «КиноПродакшн»
Жанр: Мелодрама
Продолжительность: ~0:45:00 серия
Субтитры: нет
Режиссёр: Бата Недич, Елена Цыплакова, Александр Мохов
В ролях: Зоряна Марченко, Вячеслав Дробинков, Дарья Егорова, Екатерина Олькина, Александр Мохов, Галина Безрук, Анатолий Хостикоев, Дмитрий Назаров, Олеся Жураковская, Георгий Хостикоев, Артём Алексеев (II), Дмитрий Арбенин, Владимир Горянский, Станислав Боклан, Ева Авеева, Наталия Сумская, Дарья Питерова, Надежда Костюк, Елена Турбал, Анна Саливанчук, Сергей Деревянко, Александр Кобзарь, Костя Чернокрылюк, Ольга Бережная, Виталий Иванченко, Олесь Кацион, Юрий Яковлев-Суханов, Александр Попов (IV), Андрей Тартаков, Александр Гетьманский, Светлана Потанина
Описание: Это история о любви. О любви свободной, страстной и безудержной, не терпящей никаких ограничений, будь то сословное, имущественное или иное неравенство…
Марыся – одна из главных героинь этой истории. Красивая молодая казачка выросла в атмосфере безумной любви отца – любой каприз, любая прихоть ее тут же беспрекословно выполняются. Судьба сводит ее с молодым дворянином Степаном, который приезжает в станицу со своей возлюбленной Аленой, чтобы девушку насильно не выдали замуж за богатого, но нелюбимого купца Петра Колеванова. Купец годится в отцы Алене, но ее родителей это не смущает – ведь столь удачная партия обеспечит будущее дочери, а они сами смогут поправить свое материальное положение за счет предприимчивого зятя.
После того как дочь сбежала из дома, семья оказалась опозорена настолько, что удачно выйти замуж, а скорее всего, вообще выйти замуж, Алене бы уже не удалось. Но Колеванов решил не отступать от красавицы и взялся вернуть "будущую невесту" в отчий дом и насильно сделать своей женой. Степан и Алена, прячась от родительского гнева и собираясь тайно обручиться, снимают дом у одной из обитательниц станицы и называются братом и сестрой.
На свое несчастье Степан спасает от верной гибели Марысю, которую понесла норовистая лошадь. Девушка с первого взгляда влюбляется в своего спасителя и готова во что бы то ни стало женить на себе видного парня. А получив от Степана недвусмысленный отказ, решает отомстить. Но это всего лишь начало истории...

Качество: SATRip
Формат: AVI
Видео кодек: XviD
Аудио кодек:MP3
Видео: 704x368 (1.91:1), 25 fps, XviD build 50 ~1419 kbps avg, 0.22 bit/pixel
Аудио: 48 kHz, MPEG Layer 3, 2 ch, ~192.00 kbps avg
Сторонней рекламы нет!

MediaInfo

Общее
Полное имя : E:\Downloads\55\Пока станица спит SATRip XviD (1-20)\Пока станица спит (Казаки).(001.seriya).2014.XviD.SATRip.by.simka.avi
Формат : AVI
Формат/Информация : Audio Video InterleaveРазмер файла : 501 Мбайт
Продолжительность : 43 м.
Общий поток : 1621 Кбит/сек
Программа кодирования : VirtualDubMod 1.5.10.3 | www.virtualdub-fr.org || (build 2550/release)
Библиотека кодирования : VirtualDubMod build 2550/release
Видео
Идентификатор : 0
Формат : MPEG-4 Visual
Профиль формата : Advanced Simple@L5
Параметр BVOP формата : 1
Параметр QPel формата : Нет
Параметр GMC формата : Без точки перехода
Параметр матрицы формата : Default (H.263)
Идентификатор кодека : XVIDИ
дентификатор кодека/Подсказка : XviD
Продолжительность : 43 м.
Битрейт : 1420 Кбит/сек
Ширина : 704 пикс.
Высота : 368 пикс.
Соотношение сторон : 1,913
Частота кадров : 25,000 кадр/сек
Цветовое пространство : YUV
Подвыборка цветности : 4:2:0
Битовая глубина : 8 бит
Тип развёртки : Прогрессивная
Метод сжатия : С потерями
Бит/(Пиксели*Кадры) : 0.219
Размер потока : 439 Мбайт (88%)
Библиотека кодирования : XviD 1.2.1 (UTC 2008-12-04)
Аудио
Идентификатор : 1
Формат : MPEG Audio
Версия формата : Version 1
Профиль формата : Layer 3
Режим : Joint stereo
Идентификатор кодека : 55
Идентификатор кодека/Подсказка : MP3
Продолжительность : 43 м.
Вид битрейта : Постоянный
Битрейт : 192 Кбит/сек
Каналы : 2 канала
Частота : 48,0 КГц
Метод сжатия : С потерями
Размер потока : 59,3 Мбайт (12%)
Выравнивание : Соединение по промежуткам
Продолжительность промежутка : 40 мс. (1,00 видеокадр)
Время предзагрузки промежутка : 504 ms
Библиотека кодирования : LAME3.99r
Настройки программы : -m j -V 4 -q 2 -lowpass 18.6 -b 192

Внимание ! Раздача ведётся путём добавления новых серий

Внимание! Раздача ведётся путём добавления новых серий; при каждом добавлении создётся новый торрент. Чтобы начать докачку новой серии, пользователям необходимо сделать следующее:
(1) остановить скачивание,
(2) удалить старый торрент у себя из клиента (старые серии удалять не надо),
(3) скачать новый торрент и запустить его у себя в клиенте вместо старого, при этом указать клиенту путь в старую папку куда и должно происходить скачивание новых серий.
Ваш клиент при этом должен произвести хеширование (проверку) старой папки (если не производит сам - помогите ему сделать это), и будет докачивать только те серии которых у вас ещё нет. Старые серии при этом не удаляются, а продолжают раздаваться!
Eсли вы уже удалили старые серии, то предотвратить повторную закачку старых серий можно, отжав галочку в соответсвующих местах при запуске нового торрента. По возможности, желательно не удалять старые серии как можно дольше чтобы релизёр не столько продолжал раздавать старые серии, а смог сконцентрироваться на новых.
ВНИМАНИЕ! ТОРРЕНТ ПЕРЕЗАЛИТ! ДОБАВЛЕНА 5-ая СЕРИИ!

[Цитировать]



Показать сообщения:    

Текущее время: 10-Дек 02:15

Часовой пояс: UTC + 3


Вы не можете начинать темы
Вы не можете отвечать на сообщения
Вы не можете редактировать свои сообщения
Вы не можете удалять свои сообщения
Вы не можете голосовать в опросах
Вы не можете прикреплять файлы к сообщениям
Вы не можете скачивать файлы

!ВНИМАНИЕ!
Сайт не предоставляет электронные версии произведений, а занимается лишь коллекционированием и каталогизацией ссылок, присылаемых и публикуемых на форуме нашими читателями. Если вы являетесь правообладателем какого-либо представленного материала и не желаете, чтобы ссылка на него находилась в нашем каталоге, свяжитесь с нами, и мы незамедлительно удалим ее. Файлы для обмена на трекере предоставлены пользователями сайта, и администрация не несет ответственности за их содержание. Просьба не заливать файлы, защищенные авторскими правами, а также файлы нелегального содержания!