[ Сегодня идет свободное скачивание без начисления Download ]


Статистика раздачи
Нет
 
   
 
Top  
 
 
-Va-банк / Runner Runner (2013) BDRip- Год выпуска: 2013
Производство: США
Жанр: Триллер, Драма, Криминал
Перевод: Дублированный [iTunes]
Язык субтитров: Русский, Русский (форс.), Украинский, Английский
Режиссер: Брэд Фурман
Актеры: Джастин Тимберлэйк, Бен Аффлек, Джемма Артертон, Энтони Маки, Майкл Эспер, Оливер Купер, Кристиан Джордж, Юл Васкез, Джон Хёрд, Джеймс Молина
Описание фильма:
Чтобы оплачивать учёбу в колледже, Ричи погружается в мир азартных игр онлайн. Когда удача изменяет ему, он отправляется на Коста-Рику, чтобы помериться силами с настоящим асом игрового бизнеса. Тот видит в Ричи родственную душу и вводит его в свою игру. Но когда степень опасности возрастает, а ставки достигают невероятных высот, Ричи вдруг отчётливо понимает, что его новый босс вот-вот совершит непоправимое, и пытается поменяться с ним ролями. -

Дата мировой премьеры: 18 сентября 2013
Дата российской премьеры: 26 сентября 2013, «Двадцатый Век Фокс СНГ»
Дата выхода DVD релиза: 6 февраля 2014, «Двадцатый Век Фокс СНГ»-Продолжительность: 01:31:31
Качество видео: BDRip-AVC
Видеокодек: MPEG-4 AVC/H.264
Битрейт видео: ~3150 Кбит/сек
Размер кадра: 1280x536
Аудио: Русский / AC3 2.0 / 384 Кбит/сек / 48,0 КГц

MediaInfo 0.7.64

Общее
Уникальный идентификатор : 197538117169618316647812650667316887245 (0x949C751ED138A1F298023203DD243ECD)
Полное имя : \Va-банк_Runner Runner.2013.BDRip.720p.mkv
Формат : Matroska
Версия формата : Version 2
Размер файла : 2,18 Гбайт
Продолжительность : 1 ч. 31 м.
Общий поток : 3404 Кбит/сек
Название фильма : Va-банк_Runner Runner.2013.BDRip.720p
Дата кодирования : UTC 2014-01-12 07:06:11
Программа кодирования : mkvmerge v5.8.0 ('No Sleep / Pillow') built on Sep 2 2012 15:37:04
Библиотека кодирования : libebml v1.2.3 + libmatroska v1.3.0
Видео
Идентификатор : 1
Формат : AVC
Формат/Информация : Advanced Video Codec
Профиль формата : High@L4.1
Параметр CABAC формата : Да
Параметр ReFrames формата : 8 кадров
Идентификатор кодека : V_MPEG4/ISO/AVC
Продолжительность : 1 ч. 31 м.
Битрейт : 3150 Кбит/сек
Ширина : 1280 пикселей
Высота : 536 пикселей
Соотношение сторон : 2,40:1
Режим частоты кадров : Постоянный
Частота кадров : 23,976 кадра/сек
Цветовое пространство : YUV
Субдискретизация насыщенности : 4:2:0
Битовая глубина : 8 бит
Тип развёртки : Прогрессивная
Бит/(Пиксели*Кадры) : 0.191
Размер потока : 1,97 Гбайт (90%)
Заголовок : Va-банк_Runner Runner.2013.BDRip.720p
Библиотека кодирования : x264 core 138 r2358 9e941d1
Настройки программы : cabac=1 / ref=8 / deblock=1:-3:-3 / analyse=0x3:0x133 / me=umh / subme=10 / psy=1 / psy_rd=1.00:0.15 / mixed_ref=1 / me_range=24 / chroma_me=1 / trellis=2 / 8x8dct=1 / cqm=0 / deadzone=21,11 / fast_pskip=0 / chroma_qp_offset=-3 / threads=12 / lookahead_threads=3 / sliced_threads=0 / nr=0 / decimate=1 / interlaced=0 / bluray_compat=0 / constrained_intra=0 / bframes=10 / b_pyramid=2 / b_adapt=2 / b_bias=0 / direct=3 / weightb=1 / open_gop=0 / weightp=2 / keyint=240 / keyint_min=22 / scenecut=40 / intra_refresh=0 / rc_lookahead=40 / rc=2pass / mbtree=1 / bitrate=3150 / ratetol=1.0 / qcomp=0.60 / qpmin=0 / qpmax=69 / qpstep=4 / cplxblur=20.0 / qblur=0.5 / vbv_maxrate=50000 / vbv_bufsize=62500 / nal_hrd=none / ip_ratio=1.40 / aq=1:0.90
Язык : English
Default : Да
Forced : Нет
Аудио
Идентификатор : 2
Формат : AC-3
Формат/Информация : Audio Coding 3
Расширение режима : CM (complete main)
Параметр Endianness формата : Big
Идентификатор кодека : A_AC3
Продолжительность : 1 ч. 31 м.
Вид битрейта : Постоянный
Битрейт : 256 Кбит/сек
Каналы : 2 канала
Расположение каналов : Front: L R
Частота : 48,0 КГц
Битовая глубина : 16 бит
Метод сжатия : С потерями
Размер потока : 168 Мбайт (8%)
Заголовок : Дублированный [iTunes]
Язык : Russian
Default : Да
Forced : Нет
Текст #1
Идентификатор : 3
Формат : UTF-8
Идентификатор кодека : S_TEXT/UTF8
Идентификатор кодека/Информация : UTF-8 Plain Text
Заголовок : Форс.
Язык : Russian
Default : Да
Forced : Нет
Текст #2
Идентификатор : 4
Формат : UTF-8
Идентификатор кодека : S_TEXT/UTF8
Идентификатор кодека/Информация : UTF-8 Plain Text
Заголовок : Полные
Язык : Russian
Default : Нет
Forced : Нет
Текст #3
Идентификатор : 5
Формат : UTF-8
Идентификатор кодека : S_TEXT/UTF8
Идентификатор кодека/Информация : UTF-8 Plain Text
Язык : Ukrainian
Default : Нет
Forced : Нет
Текст #4
Идентификатор : 6
Формат : UTF-8
Идентификатор кодека : S_TEXT/UTF8
Идентификатор кодека/Информация : UTF-8 Plain Text
Язык : English
Default : Нет
Forced : Нет
Текст #5
Идентификатор : 7
Формат : UTF-8
Идентификатор кодека : S_TEXT/UTF8
Идентификатор кодека/Информация : UTF-8 Plain Text
Язык : English
Default : Нет
Forced : Нет
Меню
00:00:00.000 : en:00:00:00.000
00:03:08.814 : en:00:03:08.814
00:05:47.973 : en:00:05:47.973
00:08:43.857 : en:00:08:43.857
00:11:16.384 : en:00:11:16.384
00:13:34.647 : en:00:13:34.647
00:15:13.913 : en:00:15:13.913
00:16:55.765 : en:00:16:55.765
00:19:46.602 : en:00:19:46.602
00:24:24.505 : en:00:24:24.505
00:27:07.334 : en:00:27:07.334
00:31:01.943 : en:00:31:01.943
00:32:59.811 : en:00:32:59.811
00:36:30.605 : en:00:36:30.605
00:38:40.026 : en:00:38:40.026
00:43:36.906 : en:00:43:36.906
00:46:38.087 : en:00:46:38.087
00:48:37.706 : en:00:48:37.706
00:53:03.555 : en:00:53:03.555
00:54:38.609 : en:00:54:38.609
00:57:18.644 : en:00:57:18.644
01:00:38.885 : en:01:00:38.885
01:03:17.669 : en:01:03:17.669
01:08:48.833 : en:01:08:48.833
01:13:04.797 : en:01:13:04.797
01:16:45.935 : en:01:16:45.935
01:21:22.961 : en:01:21:22.961
01:25:32.502 : en:01:25:32.502

h.264 log

--[Information] [10.01.2014 13:31:48] Standard error stream
---[Information] [10.01.2014 13:31:54] raw [info]: 1280x536p 1:1 @ 24000/1001 fps (cfr)
---[Information] [10.01.2014 13:31:54] x264 [info]: using SAR=1/1
---[Information] [10.01.2014 13:31:54] x264 [info]: using cpu capabilities: MMX2 SSE2Fast SSSE3 SSE4.2 AVX
---[Information] [10.01.2014 13:31:54] x264 [info]: profile High, level 4.1
---[Information] [10.01.2014 16:36:52] x264 [info]: frame I:961 Avg QP:17.77 size:107522
---[Information] [10.01.2014 16:36:52] x264 [info]: frame P:29423 Avg QP:21.06 size: 30699
---[Information] [10.01.2014 16:36:52] x264 [info]: frame B:101281 Avg QP:23.72 size: 11383

---[Information] [10.01.2014 16:36:52] x264 [info]: consecutive B-frames: 2.4% 3.4% 10.9% 15.2% 15.7% 43.4% 4.3% 1.2% 0.9% 1.5% 1.0%
---[Information] [10.01.2014 16:36:52] x264 [info]: mb I I16..4: 16.1% 65.3% 18.6%
---[Information] [10.01.2014 16:36:52] x264 [info]: mb P I16..4: 2.2% 10.4% 1.3% P16..4: 44.0% 17.4% 15.6% 0.5% 0.2% skip: 8.5%
---[Information] [10.01.2014 16:36:52] x264 [info]: mb B I16..4: 0.1% 1.2% 0.1% B16..8: 43.9% 8.5% 2.3% direct: 5.3% skip:38.6% L0:45.9% L1:46.8% BI: 7.3%
---[Information] [10.01.2014 16:36:52] x264 [info]: 8x8 transform intra:75.8% inter:66.7%
---[Information] [10.01.2014 16:36:52] x264 [info]: direct mvs spatial:98.6% temporal:1.4%
---[Information] [10.01.2014 16:36:52] x264 [info]: coded y,uvDC,uvAC intra: 81.3% 79.8% 59.7% inter: 24.4% 21.6% 5.3%
---[Information] [10.01.2014 16:36:52] x264 [info]: i16 v,h,dc,p: 31% 29% 12% 28%
---[Information] [10.01.2014 16:36:52] x264 [info]: i8 v,h,dc,ddl,ddr,vr,hd,vl,hu: 11% 8% 10% 10% 14% 13% 13% 11% 11%
---[Information] [10.01.2014 16:36:52] x264 [info]: i4 v,h,dc,ddl,ddr,vr,hd,vl,hu: 12% 12% 4% 9% 14% 13% 13% 11% 12%
---[Information] [10.01.2014 16:36:52] x264 [info]: i8c dc,h,v,p: 43% 22% 16% 19%
---[Information] [10.01.2014 16:36:52] x264 [info]: Weighted P-Frames: Y:4.1% UV:1.3%
---[Information] [10.01.2014 16:36:52] x264 [info]: ref P L0: 41.8% 10.9% 20.6% 7.5% 6.8% 4.8% 4.6% 2.5% 0.5% 0.0%
---[Information] [10.01.2014 16:36:52] x264 [info]: ref B L0: 67.9% 14.5% 8.0% 4.2% 3.0% 1.8% 0.6%
---[Information] [10.01.2014 16:36:52] x264 [info]: ref B L1: 90.7% 9.3%
---[Information] [10.01.2014 16:36:52] x264 [info]: kb/s:3145.95
---[Information] [10.01.2014 16:36:52] encoded 131665 frames, 11.86 fps, 3145.95 kb/s
--[Information] [10.01.2014 16:36:52] Final statistics
---[Information] [10.01.2014 16:36:52] Video Bitrate Desired: 3150 kbit/s
---[Information] [10.01.2014 16:36:52] Video Bitrate Obtained (approximate): 3147 kbit/s
Скриншоты:

[th]http://img.torrentsclub.org/di/MY8R/746c1a282190.png[/th] [th]http://img.torrentsclub.org/di/YP13/976d637a1bfa.png[/th] [th]http://img.torrentsclub.org/di/WUJD/2c52315d59fc.png[/th]

Время раздачи: круглогодично

[Цитировать]



Показать сообщения:    

Текущее время: 10-Дек 15:51

Часовой пояс: UTC + 3


Вы не можете начинать темы
Вы не можете отвечать на сообщения
Вы не можете редактировать свои сообщения
Вы не можете удалять свои сообщения
Вы не можете голосовать в опросах
Вы не можете прикреплять файлы к сообщениям
Вы не можете скачивать файлы

!ВНИМАНИЕ!
Сайт не предоставляет электронные версии произведений, а занимается лишь коллекционированием и каталогизацией ссылок, присылаемых и публикуемых на форуме нашими читателями. Если вы являетесь правообладателем какого-либо представленного материала и не желаете, чтобы ссылка на него находилась в нашем каталоге, свяжитесь с нами, и мы незамедлительно удалим ее. Файлы для обмена на трекере предоставлены пользователями сайта, и администрация не несет ответственности за их содержание. Просьба не заливать файлы, защищенные авторскими правами, а также файлы нелегального содержания!