[ Today is free to download without increasing Download ]

DL-List and Torrent activity
-Заложник / Captive (2013) WEB-DLRip
«How Much Good Can a Bad Man Do?»
- Год выпуска: 2013
Страна: Канада
Жанр: Боевик, Триллер
Перевод: Одноголосный закадровый | den904
Субтитры: Отсутствуют-Режиссер: Джордан Браун, Джонатан Барнетт
В главных ролях: Эрик Брекер, Кори Ремпел, Далиас Блейк, Чарльз Цуккерман, Дж.П. Райдер, Кендра Андерсон, Саманта Браун, Золтан Бедэй, Леонард Тениши -Описание фильма:
Детектив, разыскиваемый за убийство, похищает журналиста и удерживает его в заложниках. Им обоим предстоит сделать много опасных открытий, и правда будет одинаково неожиданна для каждого…-
-Дата мировой премьеры: 14 мая 2013-Продолжительность: 01:28:00
Качество видео: WEB-DLRip
Видео: XviD | 720x304 | 1 787 Kbps | 24.000 fps
Аудио #1: АС3, 5.1, 48,0 КГц, 384 kbps | VO [den904] [Русский]


Format                                   : Matroska
Format version                           : Version 4 / Version 2
File size                                : 1.36 GiB
Duration                                 : 1h 28mn
Overall bit rate                         : 2 215 Kbps
Movie name                               : Release by Arrow
Encoded date                             : UTC 2014-01-12 09:40:21
Writing application                      : mkvmerge v6.6.0 ('The Edge Of The In Between') built on Dec  1 2013 17:55:00
Writing library                          : libebml v1.3.0 + libmatroska v1.4.1
ID                                       : 1
Format                                   : MPEG-4 Visual
Format profile                           : Advanced Simple@L5
Format settings, BVOP                    : Yes
Format settings, QPel                    : No
Format settings, GMC                     : No warppoints
Format settings, Matrix                  : Default (H.263)
Codec ID                                 : V_MS/VFW/FOURCC / XVID
Codec ID/Hint                            : XviD
Duration                                 : 1h 28mn
Bit rate                                 : 1 787 Kbps
Width                                    : 720 pixels
Height                                   : 304 pixels
Display aspect ratio                     : 2.35:1
Frame rate mode                          : Constant
Frame rate                               : 23.976 fps
Color space                              : YUV
Chroma subsampling                       : 4:2:0
Bit depth                                : 8 bits
Scan type                                : Progressive
Compression mode                         : Lossy
Bits/(Pixel*Frame)                       : 0.341
Stream size                              : 1.10 GiB (81%)
Title                                    : Заложник
Writing library                          : XviD 1.2.1 (UTC 2008-12-04)
Language                                 : English
Default                                  : No
Forced                                   : No
ID                                       : 2
Format                                   : AC-3
Format/Info                              : Audio Coding 3
Mode extension                           : CM (complete main)
Format settings, Endianness              : Big
Codec ID                                 : A_AC3
Duration                                 : 1h 28mn
Bit rate mode                            : Constant
Bit rate                                 : 384 Kbps
Channel(s)                               : 6 channels
Channel positions                        : Front: L C R, Side: L R, LFE
Sampling rate                            : 48.0 KHz
Bit depth                                : 16 bits
Compression mode                         : Lossy
Stream size                              : 242 MiB (17%)
Title                                    : VO
Language                                 : Russian
Default                                  : Yes
Forced                                   : Yes

[th]http://img.torrentsclub.org/di/GT3A/83V6U2X.jpg[/th] [th]http://img.torrentsclub.org/di/J9B9/HnV87n9.jpg[/th] [th]http://img.torrentsclub.org/di/4V4P/PI6S8VJ.jpg[/th] [th]http://img.torrentsclub.org/di/ZHPE/pVdioie.jpg[/th]
-Время раздачи: 24/7 (По мере возможности...)


Display posts:    

Current time is: 24-Oct 04:39

All times are UTC + 3

You cannot post new topics in this forum
You cannot reply to topics in this forum
You cannot edit your posts in this forum
You cannot delete your posts in this forum
You cannot vote in polls in this forum
You cannot attach files in this forum
You cannot download files in this forum

The site does not give electronic versions of products, and is engaged only in a collecting and cataloguing of the references sent and published at a forum by our readers. If you are the legal owner of any submitted material and do not wish that the reference to it was in our catalogue, contact us and we shall immediately remove her. Files for an exchange on tracker are given by users of a site, and the administration does not bear the responsibility for their maintenance. The request to not fill in the files protected by copyrights, and also files of the illegal maintenance!