[ Сегодня идет свободное скачивание без начисления Download ]


Статистика раздачи
Нет
 
   
 
Top  
 
 
-Да здравствует Франция! / Vive la France (2013) HDRip- Год выпуска: 2013
Производство: Франция, Lagende Films, Gaumont, Makayel
Жанр: Комедия
Перевод: Дублированный | Лицензия |
Субтитры: Отсутствуют
Дата мировой премьеры: 16 января 2013
Дата российской премьеры: 28 ноября 2013, «Каскад»
Дата выхода DVD релиза: 23 декабря 2013, «Новый Диск»
Режиссер: Микаэль Юн
Продюсер: Ален Голдман, Франц Ричард
Актеры: Хосе Гарсия, Микаэль Юн, Изабель Фунаро, Эри Абиттан, Жером Коммандёр, Венсан Москато, Жан Франсуа Кэйри, Франк Гастамбид, Мусса Мааскри, Хамид Наджах
Описание фильма:
Сатирическая комедия. В вымышленной арабской стране Табулистан живут два друга. Им очень хочется, чтобы об их замечательной стране узнал весь мир. Лучшим способом прославить свою страну они выбирают зрелищное, но очень противозаконное представление. Заручившись поддержкой президента Табулистана, герои отправляются к своей цели - в Париж, чтобы взорвать Эйфелеву башню. «Да здравствует Франция!» - второй фильм в качестве режиссера популярного актера Микаэля Юна.

Продолжительность: 01:36:56
Качество видео: HDRip
Видеокодек: XviD
Битрейт видео: 1701 kb/s
Размер кадра: 720x304
Аудиокодек: AC3, 6 ch
Битрейт аудио: 448 kb/s

MI

Общее
Полное имя                               : D:\Раздачи\Da.zdravstvyet.Franciya.2013.HDRip.avi
Формат                                   : AVI
Формат/Информация                        : Audio Video Interleave
Размер файла                             : 1,46 Гбайт
Продолжительность                        : 1 ч. 36 м.
Общий поток                              : 2159 Кбит/сек
Программа кодирования                    : VirtualDubMod 1.5.10.2 (build 2540/release)
Библиотека кодирования                   : VirtualDubMod build 2540/release
Видео
Идентификатор                            : 0
Формат                                   : MPEG-4 Visual
Профиль формата                          : Advanced [email protected]
Параметр BVOP формата                    : 2
Параметр QPel формата                    : Нет
Параметр GMC формата                     : Без точки перехода
Параметр матрицы формата                 : Default (MPEG)
Идентификатор кодека                     : XVID
Идентификатор кодека/Подсказка           : XviD
Продолжительность                        : 1 ч. 36 м.
Битрейт                                  : 1701 Кбит/сек
Ширина                                   : 720 пикселей
Высота                                   : 304 пикселя
Соотношение сторон                       : 2,35:1
Частота кадров                           : 24,000 кадра/сек
Цветовое пространство                    : YUV
Субдискретизация насыщенности            : 4:2:0
Битовая глубина                          : 8 бит
Тип развёртки                            : Прогрессивная
Метод сжатия                             : С потерями
Бит/(Пиксели*Кадры)                      : 0.324
Размер потока                            : 1,15 Гбайт (79%)
Библиотека кодирования                   : XviD 1.2.1 (UTC 2008-12-04)
Аудио
Идентификатор                            : 1
Формат                                   : AC-3
Формат/Информация                        : Audio Coding 3
Расширение режима                        : CM (complete main)
Параметр Endianness формата              : Big
Идентификатор кодека                     : 2000
Продолжительность                        : 1 ч. 36 м.
Вид битрейта                             : Постоянный
Битрейт                                  : 448 Кбит/сек
Каналы                                   : 6 каналов
Расположение каналов                     : Front: L C R, Side: L R, LFE
Частота                                  : 48,0 КГц
Битовая глубина                          : 16 бит
Метод сжатия                             : С потерями
Размер потока                            : 311 Мбайт (21%)
Выравнивание                             : Разделение по промежуткам
Продолжительность промежутка             : 42  мс. (1,00 видеокадр)
Время предзагрузки промежутка            : 500  мс.
Скриншоты:[th]http://img.torrentsclub.org/di/YZJS/7CdvQ71.png[/th] [th]http://img.torrentsclub.org/di/AWQI/kCZqgFy.png[/th] [th]http://img.torrentsclub.org/di/OX2U/SndxbiM.png[/th] [th]http://img.torrentsclub.org/di/3VSH/zkxyFGt.png[/th]Время раздачи: 24/7,
до 5 скачавших.

[Цитировать]

Топик был перенесен из форума Новинки кинопроката в форум Комедия
Henkok



Показать сообщения:    

Текущее время: 04-Дек 19:17

Часовой пояс: UTC + 3


Вы не можете начинать темы
Вы не можете отвечать на сообщения
Вы не можете редактировать свои сообщения
Вы не можете удалять свои сообщения
Вы не можете голосовать в опросах
Вы не можете прикреплять файлы к сообщениям
Вы не можете скачивать файлы

!ВНИМАНИЕ!
Сайт не предоставляет электронные версии произведений, а занимается лишь коллекционированием и каталогизацией ссылок, присылаемых и публикуемых на форуме нашими читателями. Если вы являетесь правообладателем какого-либо представленного материала и не желаете, чтобы ссылка на него находилась в нашем каталоге, свяжитесь с нами, и мы незамедлительно удалим ее. Файлы для обмена на трекере предоставлены пользователями сайта, и администрация не несет ответственности за их содержание. Просьба не заливать файлы, защищенные авторскими правами, а также файлы нелегального содержания!